Expelled.2014.720p.WEB-DL.DD5.1.H264-RARBG

  • CategoryMovies
  • TypeHD
  • LanguageEnglish
  • Total size2.7 GB
  • Uploaded ByTeXTX
  • Downloads242
  • Last checkedApr. 22nd '20
  • Date uploadedApr. 26th '15
  • Seeders 0
  • Leechers0

Expelled

Comedy

Felix (Cameron Dallas) is a legendary prankster who gets expelled from his high school and, with his friend’s help, stops at nothing to hide it from his parents.

Infohash : 3A09838879AF2932833D94A888E31483CD94A513

Expelled.2014.720p.WEB-DL.DD5.1.H264-RARBG

Screens:







Info:

[mediainfo]

Video
ID : 1
Format : AVC
Format/Info : Advanced Video Codec
Format profile : [email protected]
Format settings, CABAC : No
Format settings, ReFrames : 2 frames
Codec ID : V_MPEG4/ISO/AVC
Duration : 1h 25mn
Bit rate : 4 028 Kbps
Width : 1 280 pixels
Height : 718 pixels
Display aspect ratio : 16:9
Frame rate mode : Constant
Frame rate : 23.976 fps
Color space : YUV
Chroma subsampling : 4:2:0
Bit depth : 8 bits
Scan type : Progressive
Bits/(Pixel*Frame) : 0.183
Stream size : 2.41 GiB (89%)
Title : Expelled.2014.720p.WEB-DL.DD5.1.H264-RARBG
Language : English
Default : Yes
Forced : No
Color primaries : BT.709
Transfer characteristics : BT.709
Matrix coefficients : BT.709

Audio
ID : 2
Format : AC-3
Format/Info : Audio Coding 3
Mode extension : CM (complete main)
Format settings, Endianness : Big
Codec ID : A_AC3
Duration : 1h 25mn
Bit rate mode : Constant
Bit rate : 384 Kbps
Channel(s) : 6 channels
Channel positions : Front: L C R, Side: L R, LFE
Sampling rate : 48.0 KHz
Bit depth : 16 bits
Compression mode : Lossy
Stream size : 236 MiB (9%)
Title : Expelled.2014.720p.WEB-DL.DD5.1.H264-RARBG
Language : English
Default : Yes
Forced : No

Text
ID : 3
Format : UTF-8
Codec ID : S_TEXT/UTF8
Codec ID/Info : UTF-8 Plain Text
Language : English
Default : No
Forced : No

Menu
00:00:00.000 : en:Chapter 01
00:05:18.000 : en:Chapter 02
00:11:43.000 : en:Chapter 03
00:17:19.000 : en:Chapter 04
00:20:38.000 : en:Chapter 05
00:26:16.000 : en:Chapter 06
00:31:45.000 : en:Chapter 07
00:37:55.000 : en:Chapter 08
00:45:00.000 : en:Chapter 09
00:50:08.000 : en:Chapter 10
00:54:53.000 : en:Chapter 11
00:58:19.000 : en:Chapter 12
01:03:31.000 : en:Chapter 13
01:11:52.000 : en:Chapter 14
01:17:02.000 : en:Chapter 15
01:22:01.000 : en:Chapter 16


[/mediainfo]

Notes:
Greetz to all! :)

Files:

  • English.srt (118.7 KB)
  • Expelled.2014.720p.WEB-DL.DD5.1.H264-RARBG.mkv (2.7 GB)
  • Expelled.2014.720p.WEB-DL.DD5.1.H264-RARBG.nfo (3.9 KB)
  • RARBG.com.mp4 (992.9 KB)
  • RARBG.com.txt (0.0 KB)

Code:

  • http://tracker.trackerfix.com:80/announce
  • udp://9.rarbg.me:2710/announce
  • udp://11.rarbg.me:80/announce
  • udp://10.rarbg.me:80/announce
  • udp://12.rarbg.me:80/announce
  • udp://9.rarbg.com:2710/announce