Ratter (2015) BluRay 720p H264 AC3 [ITRG][IndexTorrent].mkv.torre...

  • Category Movies
  • Type HD
  • Language English
  • Total size 612.8 MB
  • Uploaded By ITRG
  • Downloads 171
  • Last checked 2 minutes ago
  • Date uploaded 3 years ago
  • Seeders 0
  • Leechers 0

Ratter

Thriller

Emma is a young and beautiful graduate student just starting a new life in New York City. Like most people her age, she is always connected - her phone and laptop are constant companions, documenting her most intimate moments. What she doesn't realize is that she's sharing her life with an uninvited and dangerous guest. A hacker is following Emma’s every move. When the voyeuristic thrill of watching her digitally isn't enough, the situation escalates to a dangerous and terrifying level.

Infohash : 8DEA76C403A140EB63F24680506417BEE8346AB3

SCREEN SHOTS




General
Unique ID : 127801325143382821222873502569309595491 (0x6025A3D0A8280F3B52C9438CA7EEE763)
Complete name : C:BDConvertedRatter.2015Ratter (2015) BluRay 720p H264 AC3 [ITRG][IndexTorrent.com].mkvRatter (2015) BluRay 720p H264 AC3 [ITRG][IndexTorrent.com].mkv
Format : Matroska
Format version : Version 2
File size : 612 MiB
Duration : 1h 20mn
Overall bit rate : 1 066 Kbps
Encoded date : UTC 2016-04-05T21:40:32Z
Writing application : HandBrake 0.10.3 2016012200
Writing library : Lavf55.12.0 / Lavf55.12.0

Video
ID : 1
Format : AVC
Format/Info : Advanced Video Codec
Format profile : [email protected]
Format settings, CABAC : Yes
Format settings, ReFrames : 4 frames
Codec ID : V_MPEG4/ISO/AVC
Duration : 1h 20mn
Bit rate : 948 Kbps
Nominal bit rate : 1 000 Kbps
Width : 720 pixels
Height : 320 pixels
Display aspect ratio : 2.25:1
Frame rate mode : Constant
Frame rate : 23.976 (24000/1001) fps
Color space : YUV
Chroma subsampling : 4:2:0
Bit depth : 8 bits
Scan type : Progressive
Bits/(Pixel*Frame) : 0.172
Stream size : 545 MiB (89%)

Default : Yes
Forced : No
Color range : Limited
Color primaries : BT.709
Transfer characteristics : BT.709
Matrix coefficients : BT.709

Audio
ID : 2
Format : AC-3
Format/Info : Audio Coding 3
Mode extension : CM (complete main)
Format settings, Endianness : Big
Codec ID : A_AC3
Duration : 1h 20mn
Bit rate mode : Constant
Bit rate : 96.0 Kbps
Channel(s) : 2 channels
Channel positions : Front: L R
Sampling rate : 48.0 KHz
Frame rate : 31.250 fps (1536 spf)
Compression mode : Lossy
Delay relative to video : -5ms
Stream size : 55.2 MiB (9%)
Title : Stereo
Language : English
Default : Yes
Forced : No

Files:

  • 1.jpg (187.3 KB)
  • 2.jpg (177.9 KB)
  • 3.jpg (159.0 KB)
  • media info.txt (6.6 KB)
  • Ratter (2015) BluRay 720p H264 AC3 [ITRG][IndexTorrent.com].mkv (612.3 MB)

There are currently no comments. Feel free to leave one :)

Code:

  • udp://glotorrents.pw:6969/announce
  • udp://tracker.publicbt.com:80/announce
  • udp://9.rarbg.com:2710/announce
  • udp://tracker.coppersurfer.tk:6969/announce
  • udp://tracker.openbittorrent.com:80/announce
  • udp://eddie4.nl:6969/announce
  • udp://torrent.gresille.org:80/announce
  • udp://tracker.opentrackr.org:1337/announce
  • udp://poloniumsurfer.tk:6969/announce
  • udp://tracker.piratepublic.com:1337/announce
/08/e7/ff/08e7ffd6a1ad8052c7c702273b643766.js'>