Four.Christmases.2008.720p.BluRay-x0r

  • CategoryMovies
  • TypeHD
  • LanguageEnglish
  • Total size1.9 GB
  • Uploaded Bysub7
  • Downloads935
  • Last checkedApr. 27th '20
  • Date uploadedApr. 29th '18
  • Seeders 1
  • Leechers0

Four Christmases

Comedy Drama Romance

Brad and Kate have made something of an art form out of avoiding their families during the holidays, but this year their foolproof plan is about go bust -- big time. Stuck at the city airport after all departing flights are canceled, the couple is embarrassed to see their ruse exposed to the world by an overzealous television reporter. Now, Brad and Kate are left with precious little choice other than to swallow their pride and suffer the rounds.

Infohash : 0B5BC5B0DE5BA1AC397EC64CEF239E44BE524E28

Four.Christmases.2008.720p.BluRay-x0r

ImDb: http://www.imdb.com/title/tt0369436



Complete name : Four.Christmases.2008.720p.BluRay-x0r.mkv
Format : Matroska
Format version : Version 4 / Version 2
File size : 1.86 GiB
Duration : 1 h 28 min
Overall bit rate : 3 009 kb/s
Movie name : Four.Christmases.2008.720p.BluRay-x0r
Encoded date : UTC 2017-10-04 13:52:44
Writing application : mkvmerge v7.7.0 ('Six Voices') 64bit built on Mar 1 2015 01:50:05
Writing library : libebml v1.3.1 + libmatroska v1.4.2

Video
ID : 1
Format : AVC
Format/Info : Advanced Video Codec
Format profile : [email protected]
Format settings, CABAC : Yes
Format settings, ReFrames : 8 frames
Codec ID : V_MPEG4/ISO/AVC
Duration : 1 h 28 min
Bit rate : 2 560 kb/s
Width : 1 280 pixels
Height : 720 pixels
Display aspect ratio : 16:9
Frame rate mode : Constant
Frame rate : 23.976 (24000/1001) FPS
Color space : YUV
Chroma subsampling : 4:2:0
Bit depth : 8 bits
Scan type : Progressive
Bits/(Pixel*Frame) : 0.116
Stream size : 1.58 GiB (85%)
Writing library : x264 core 130 r2273 b3065e6
Encoding settings : cabac=1 / ref=8 / deblock=1:-2:-2 / analyse=0x3:0x133 / me=umh / subme=10 / psy=1 / psy_rd=1.00:0.25 / mixed_ref=0 / me_range=32 / chroma_me=1 / trellis=2 / 8x8dct=1 / cqm=0 / deadzone=6,6 / fast_pskip=0 / chroma_qp_offset=-4 / threads=12 / lookahead_threads=1 / sliced_threads=0 / nr=0 / decimate=1 / interlaced=0 / bluray_compat=0 / constrained_intra=0 / bframes=4 / b_pyramid=2 / b_adapt=2 / b_bias=0 / direct=3 / weightb=1 / open_gop=0 / weightp=2 / keyint=240 / keyint_min=24 / scenecut=40 / intra_refresh=0 / rc_lookahead=60 / rc=2pass / mbtree=1 / bitrate=2560 / ratetol=1.0 / qcomp=0.00 / qpmin=0 / qpmax=69 / qpstep=4 / cplxblur=20.0 / qblur=0.5 / vbv_maxrate=20000 / vbv_bufsize=25000 / nal_hrd=none / ip_ratio=1.10 / aq=1:1.00
Language : English
Default : Yes
Forced : No
Color range : Limited
Color primaries : BT.709
Transfer characteristics : BT.709
Matrix coefficients : BT.709

Audio
ID : 2
Format : AC-3
Format/Info : Audio Coding 3
Format settings, Endianness : Big
Codec ID : A_AC3
Duration : 1 h 28 min
Bit rate mode : Constant
Bit rate : 448 kb/s
Channel(s) : 6 channels
Channel positions : Front: L C R, Side: L R, LFE
Sampling rate : 48.0 kHz
Frame rate : 31.250 FPS (1536 spf)
Bit depth : 16 bits
Compression mode : Lossy
Stream size : 284 MiB (15%)
Title : Surround
Language : English
Service kind : Complete Main
Default : Yes
Forced : No

Text
ID : 3
Format : UTF-8
Codec ID : S_TEXT/UTF8
Codec ID/Info : UTF-8 Plain Text
Duration : 1 h 27 min
Bit rate : 88 b/s
Count of elements : 1436
Stream size : 56.9 KiB (0%)
Language : English
Default : Yes
Forced : No

Menu
00:00:00.000 : en:I'm Talkin' to You
00:03:50.605 : en:Why Marry?
00:06:37.939 : en:No Families Without Lies
00:10:55.446 : en:Grounded
00:14:13.227 : en:Orlando in a Headlock
00:18:20.057 : en:Tag Us In
00:22:27.137 : en:Gift Thrift Blues
00:26:38.430 : en:Breaking Point
00:31:33.350 : en:Cougar and Cooties
00:35:09.774 : en:Making Stinky
00:38:00.778 : en:The Past and the Curious
00:41:37.370 : en:Katie Jump-Jump
00:45:11.083 : en:Do Not Throw Rocks
00:47:13.748 : en:Nativity Volunteers
00:50:45.167 : en:Swaddling This Baby
00:54:38.984 : en:Little Bit Weird
00:58:45.897 : en:Buzzwords
01:03:44.029 : en:Tired of One Foot In
01:07:34.842 : en:Family Time
01:12:30.596 : en:Talking Appraisals
01:15:47.793 : en:Talking About It
01:18:27.536 : en:We're Doing Great
01:20:05.009 : en:End Credits






Click To View Screenshot

Click To View Screenshot

Click To View Screenshot

Files:

Four.Christmases.2008.720p.BluRay-x0r
  • Four.Christmases.2008.720p.BluRay-x0r.fanart.jpg (289.2 KB)
  • Four.Christmases.2008.720p.BluRay-x0r.jpg (433.9 KB)
  • Four.Christmases.2008.720p.BluRay-x0r.mkv (1.9 GB)
  • Four.Christmases.2008.720p.BluRay-x0r.nfo (0.1 KB)

Code:

  • udp://tracker.coppersurfer.tk:6969/announce
  • udp://tracker.pirateparty.gr:6969/announce
  • udp://shadowshq.yi.org:6969/announce
  • udp://eddie4.nl:6969/announce
  • udp://tracker.leechers-paradise.org:6969/announce
  • udp://tracker.opentrackr.org:1337/announce
  • udp://p4p.arenabg.ch:1337/announce
  • udp://p4p.arenabg.com:1337/announce
  • udp://9.rarbg.me:2710/announce
  • udp://9.rarbg.to:2710/announce
  • udp://ipv4.tracker.harry.lu:80/announce
  • udp://tracker.grepler.com:6969/announce
  • udp://public.popcorn-tracker.org:6969/announce
  • udp://tracker.opentrackr.org:1337/announce
  • udp://tracker.zer0day.to:1337/announce