Arrow S07E03 Crossing Lines AMZN WEBRip 1080p x265 AAC 5.1 D0ct0r...

  • Category TV
  • Type HEVC/x265
  • Language English
  • Total size 1.8 GB
  • Uploaded By D0ct0rLew
  • Downloads 219
  • Last checked 1 year ago
  • Date uploaded 1 year ago
  • Seeders 9
  • Leechers 6
80%
October 30, 2018, 1:00 am

Arrow

Still in prison, Oliver faces his biggest challenge yet. Meanwhile, Felicity gets an intriguing offer, and Diggle asks Curtis to go undercover for ARGUS.

Infohash : 792774A33AA30D89204FC9E1DD18406AC5C26741





Media Information



Unique ID                                : 229458890872234043606771470223946898544 (0xACA02CC5D4E8E30B95D6E7D95ABD5C70)
Complete name                            : Arrow S07E03 Crossing Lines AMZN WEBRip 1080p x265 AAC 5.1 D0ct0rLew.mkv
Format                                   : Matroska
Format version                           : Version 4
File size                                : 1.77 GiB
Duration                                 : 41 min 2 s
Overall bit rate                         : 6 166 kb/s
Movie name                               : Arrow S07E03 Crossing Lines 1080p AMZN WEBrip
Encoded date                             : UTC 2018-10-30 21:04:45
Writing application                      : mkvmerge v17.0.0 ('Be Ur Friend') 64-bit
Writing library                          : libebml v1.3.5 + libmatroska v1.4.8

Video
ID                                       : 2
Format                                   : HEVC
Format/Info                              : High Efficiency Video Coding
Format profile                           : Main [email protected]@Main
Codec ID                                 : V_MPEGH/ISO/HEVC
Duration                                 : 41 min 2 s
Bit rate                                 : 5 716 kb/s
Width                                    : 1 920 pixels
Height                                   : 1 080 pixels
Display aspect ratio                     : 16:9
Frame rate mode                          : Constant
Frame rate                               : 23.976 (24000/1001) FPS
Color space                              : YUV
Chroma subsampling                       : 4:2:0
Bit depth                                : 10 bits
Bits/(Pixel*Frame)                       : 0.115
Stream size                              : 1.64 GiB (93%)
Writing library                          : x265 2.8+66-88ee12651e30:[Windows][GCC 8.2.0][64 bit] 10bit
Encoding settings                        : cpuid=1049583 / frame-threads=3 / numa-pools=8 / wpp / no-pmode / no-pme / no-psnr / no-ssim / log-level=2 / input-csp=1 / input-res=1920x1080 / interlace=0 / total-frames=59035 / level-idc=0 / high-tier=1 / uhd-bd=0 / ref=4 / no-allow-non-conformance / no-repeat-headers / annexb / no-aud / no-hrd / info / hash=0 / no-temporal-layers / open-gop / min-keyint=24 / keyint=240 / gop-lookahead=0 / bframes=8 / b-adapt=2 / b-pyramid / bframe-bias=0 / rc-lookahead=90 / lookahead-slices=4 / scenecut=40 / radl=0 / no-intra-refresh / ctu=64 / min-cu-size=8 / no-rect / no-amp / max-tu-size=32 / tu-inter-depth=1 / tu-intra-depth=1 / limit-tu=0 / rdoq-level=2 / dynamic-rd=0.00 / no-ssim-rd / signhide / no-tskip / nr-intra=0 / nr-inter=0 / no-constrained-intra / no-strong-intra-smoothing / max-merge=3 / limit-refs=3 / limit-modes / me=3 / subme=3 / merange=92 / temporal-mvp / weightp / no-weightb / no-analyze-src-pics / deblock=0:0 / sao / no-sao-non-deblock / rd=4 / no-early-skip / rskip / no-fast-intra / no-tskip-fast / no-cu-lossless / no-b-intra / no-splitrd-skip / rdpenalty=0 / psy-rd=1.30 / psy-rdoq=1.00 / no-rd-refine / no-lossless / cbqpoffs=0 / crqpoffs=0 / rc=crf / crf=19.5 / qcomp=0.50 / qpstep=4 / stats-write=0 / stats-read=0 / ipratio=1.40 / pbratio=1.30 / aq-mode=3 / aq-strength=0.90 / cutree / zone-count=0 / no-strict-cbr / qg-size=32 / no-rc-grain / qpmax=69 / qpmin=0 / no-const-vbv / sar=1 / overscan=0 / videoformat=5 / range=0 / colorprim=1 / transfer=1 / colormatrix=1 / chromaloc=0 / display-window=0 / max-cll=0,0 / min-luma=0 / max-luma=1023 / log2-max-poc-lsb=8 / vui-timing-info / vui-hrd-info / slices=1 / no-opt-qp-pps / no-opt-ref-list-length-pps / no-multi-pass-opt-rps / scenecut-bias=0.05 / no-opt-cu-delta-qp / no-aq-motion / no-hdr / no-hdr-opt / no-dhdr10-opt / no-idr-recovery-sei / analysis-reuse-level=5 / scale-factor=0 / refine-intra=0 / refine-inter=0 / refine-mv=0 / no-limit-sao / ctu-info=0 / no-lowpass-dct / refine-mv-type=0 / copy-pic=1 / max-ausize-factor=1.0 / no-dynamic-refine / no-single-sei
Default                                  : Yes
Forced                                   : No
Color range                              : Limited
Color primaries                          : BT.709
Transfer characteristics                 : BT.709
Matrix coefficients                      : BT.709

Audio
ID                                       : 3
Format                                   : AAC LC
Format/Info                              : Advanced Audio Codec Low Complexity
Codec ID                                 : A_AAC-2
Duration                                 : 41 min 2 s
Bit rate                                 : 448 kb/s
Channel(s)                               : 6 channels
Channel layout                           : C L R Ls Rs LFE
Sampling rate                            : 48.0 kHz
Frame rate                               : 46.875 FPS (1024 SPF)
Compression mode                         : Lossy
Delay relative to video                  : 9 ms
Stream size                              : 131 MiB (7%)
Language                                 : English
Default                                  : Yes
Forced                                   : No

Text
ID                                       : 1
Format                                   : UTF-8
Codec ID                                 : S_TEXT/UTF8
Codec ID/Info                            : UTF-8 Plain Text
Duration                                 : 40 min 55 s
Bit rate                                 : 80 b/s
Count of elements                        : 674
Stream size                              : 24.0 KiB (0%)
Language                                 : English
Default                                  : Yes
Forced                                   : No



We have no issue with individuals posting or re-uploading our torrents on a platform we aren't on. However, if this is something you'd like to do, please do so in a 'as-is' format. We ask that you do not create a new torrent, include all descriptions you see above including the UTR logo, tags, notes and screenshots. If you'd like to become a permanent poster on a website we don't post to, feel free to get in contact with a UniTeam member.


Files:

  • Arrow S07E03 Crossing Lines AMZN WEBRip 1080p x265 AAC 5.1 D0ct0rLew.mkv (1.8 GB)

There are currently no comments. Feel free to leave one :)

Code:

  • udp://shadowshq.yi.org:6969/announce
  • udp://tracker.justseed.it:1337/announce
  • http://0d.kebhana.mx:443/announce
  • https://open.acgnxtracker.com:443/announce
  • https://tr.fuuko.net:443/announce
  • http://bt.dl1234.com:80/announce
  • http://p4p.arenabg.com:1337/announce
  • http://tracker.opentrackr.org:1337/announce
  • http://explodie.org:6969/announce
  • udp://tracker.zer0day.to:1337/announce
  • http://torrentsmd.com:8080/announce
  • http://tracker.city9x.com:2710/announce
  • udp://tracker.coppersurfer.tk:6969/announce
  • udp://tracker.leechers-paradise.org:6969/announce
  • https://linetorrent.xyz:443/announce
  • udp://tracker.coppersurfer.tk:6969
  • udp://tracker.leechers-paradise.org:6969
  • udp://tracker.opentrackr.org:1337/announce
  • udp://torrent.gresille.org:80/announce
  • udp://9.rarbg.me:2710/announce
  • udp://p4p.arenabg.com:1337
  • udp://tracker.internetwarriors.net:1337
/08/e7/ff/08e7ffd6a1ad8052c7c702273b643766.js'>