Reign of the Supermen (2019) 2160p HDR 5.1 x265 10bit Phun Psyz

  • Category Movies
  • Type UHD
  • Language English
  • Total size 1.3 GB
  • Uploaded By PhunPsyz
  • Downloads 509
  • Last checked 2 months ago
  • Date uploaded 2 months ago
  • Seeders 88
  • Leechers 17

Infohash : 4EFFFD67F5740A42575074D6A6454CE86EE64B20

www.imdb.com/title/tt7167686/

After the death of Superman, several new people present themselves as possible successors.

Source: FGT 4k HDR Remux







Format : Matroska
Format version : Version 4
File size : 1.34 GiB
Duration : 1 h 27 min
Overall bit rate : 2 202 kb/s

Video
ID : 1
Format : HEVC
Format/Info : High Efficiency Video Coding
Format profile : Main [email protected]@High
Codec ID : V_MPEGH/ISO/HEVC
Duration : 1 h 27 min
Bit rate : 1 838 kb/s
Width : 3 840 pixels
Height : 2 160 pixels
Display aspect ratio : 16:9
Frame rate mode : Constant
Frame rate : 23.976 (24000/1001) FPS
Color space : YUV
Chroma subsampling : 4:2:0
Bit depth : 10 bits
Bits/(Pixel*Frame) : 0.009
Stream size : 1.12 GiB (83%)
Writing library : x265 2.9:[Windows][GCC 7.1.0][64 bit] 10bit

Audio
ID : 2
Format : AC-3
Format/Info : Audio Coding 3
Commercial name : Dolby Digital
Codec ID : A_AC3
Duration : 1 h 27 min
Bit rate mode : Constant
Bit rate : 320 kb/s
Channel(s) : 6 channels
Channel layout : L R C LFE Ls Rs
Sampling rate : 48.0 kHz
Frame rate : 31.250 FPS (1536 SPF)
Bit depth : 16 bits
Compression mode : Lossy
Stream size : 200 MiB (15%)
Title : Surround
Language : English

Text
Language : English
Language : English
Language : French
Language : Spanish
Language : French
Language : Spanish
Default : No
Forced : No

Files:

  • Reign of the Supermen (2019) 2160p HDR 5.1 x265 10bit Phun Psyz.mkv (1.3 GB)

There are currently no comments. Feel free to leave one :)

Code:

  • udp://tracker.coppersurfer.tk:6969/announce
  • udp://tracker.opentrackr.org:1337/announce
  • udp://thetracker.org:80/announce
  • udp://tracker.pirateparty.gr:6969/announce
  • udp://tracker.internetwarriors.net:1337/announce
  • udp://tracker.torrent.eu.org:451/announce
  • udp://tracker.tiny-vps.com:6969/announce
  • udp://explodie.org:6969/announce
  • http://explodie.org:6969/announce
  • http://open.acgtracker.com:1096/announce
  • udp://182.176.139.129:6969/announce
  • udp://tracker.uw0.xyz:6969/announce
/08/e7/ff/08e7ffd6a1ad8052c7c702273b643766.js'>