Merlin And The War Of The Dragons 2008 x264 720p Dual Audio Telug...

  • Category Movies
  • Type Dubs/Dual Audio
  • Language English
  • Total size 650.8 MB
  • Uploaded By PENDUDESI
  • Downloads 1744
  • Last checked 1 month ago
  • Date uploaded 1 month ago
  • Seeders 45
  • Leechers 14

Merlin and the War of the Dragons

Fantasy

In 5th Century Britian, a young Merlin struggles for his place in his known land under the tutelage of The Mage, a local wizard whom sees the young man's potential for magic, as well as face off against his evil former friend, Vendiger, whom plots with a feudal warlord king to conquer all of Britian using an army of flying dragons, and only Merlin with the alliance of the local Prince Uther and Ingraine and a pair of mystical goddesses, can have the power to stop the evil from taking over the land.

Infohash : 3ACEC95072E9CFDFBC47B076FB672163D3424685

https://www.gopisahi.pw/

Format version : Version 4 / Version 2

File size : 651 MiB

Duration : 1 h 31 min

Overall bit rate : 992 kb/s

Movie name : Merlin And The War Of The Dragons 2008 GOPISAHI


Video

Format : AVC

Format/Info : Advanced Video Codec

Codec ID : V_MPEG4/ISO/AVC

Duration : 1 h 31 min

Bit rate : 699 kb/s

Width : 1 280 pixels

Height : 720 pixels

Display aspect ratio : 16:9

Frame rate mode : Constant

Frame rate : 23.976 (24000/1001) FPS

Color space : YUV

Chroma subsampling : 4:2:0

Bit depth : 8 bits

Scan type : Progressive

Bits/(Pixel*Frame) : 0.032

Stream size : 458 MiB (70%)

Title : GOPISAHI

Writing library : x264 core 157 r2935 545de2f

Encoding settings : cabac=1 / ref=16 / deblock=1:-1:-1 / analyse=0x3:0x133 / me=umh /


Audio #1

Format : AAC

Format/Info : Advanced Audio Codec

Duration : 1 h 31 min

Bit rate : 96.0 kb/s

Channel(s) : 2 channels

Channel positions : Front: L R

Sampling rate : 48.0 kHz

Frame rate : 46.875 FPS (1024 SPF)

Compression mode : Lossy

Delay relative to video : -21 ms

Stream size : 63.3 MiB (10%)

Title : GOPISAHI

Language : Hindi


Audio #2

Format : AAC

Duration : 1 h 31 min

Bit rate : 96.0 kb/s

Channel(s) : 2 channels

Channel positions : Front: L R

Sampling rate : 48.0 kHz

Frame rate : 46.875 FPS (1024 SPF)

Compression mode : Lossy

Delay relative to video : -21 ms

Stream size : 63.3 MiB (10%)

Title : GOPISAHI

Language : English


Audio #3

Format : AAC

Duration : 1 h 31 min

Bit rate : 96.0 kb/s

Channel(s) : 2 channels

Channel positions : Front: L R

Sampling rate : 48.0 kHz

Frame rate : 46.875 FPS (1024 SPF)

Compression mode : Lossy

Delay relative to video : -21 ms

Stream size : 63.3 MiB (10%)

Title : GOPISAHI

Language : Telugu


Files:

  • Merlin And The War Of The Dragons 2008 x264 720p Dual Audio Telugu Hindi English GOPISAHI.mkv (650.8 MB)

There are currently no comments. Feel free to leave one :)

Code:

  • udp://tracker.coppersurfer.tk:6969/announce
  • http://tracker.internetwarriors.net:1337/announce
  • udp://tracker.opentrackr.org:1337/announce
  • udp://9.rarbg.to:2710/announce
  • udp://exodus.desync.com:6969/announce
  • udp://explodie.org:6969/announce
  • udp://tracker1.itzmx.com:8080/announce
  • udp://ipv4.tracker.harry.lu:80/announce
  • udp://denis.stalker.upeer.me:6969/announce
  • udp://tracker.torrent.eu.org:451/announce
  • udp://tracker.tiny-vps.com:6969/announce
  • udp://open.demonii.si:1337/announce
  • udp://tracker.port443.xyz:6969/announce
  • udp://thetracker.org:80/announce
  • udp://tracker.zer0day.to:1337/announce
  • udp://tracker.leechers-paradise.org:6969/announce
  • udp://coppersurfer.tk:6969/announce