18+ The Choice 2019 Hindi Hot WebSeries Ullu Original S01 Ep (01-...

  • Category XXX
  • Type Video
  • Language Hindi
  • Total size 440.8 MB
  • Uploaded By Moviesjug
  • Downloads 17003
  • Last checked 2 months ago
  • Date uploaded 3 months ago
  • Seeders 42
  • Leechers 21

Infohash : B289555D1435CFBB9BDAE37C2A0AAC79117BFACF



<==Whithout Any ENCODED OR Watermark==>





For High Speed Download Direct From Our Site



Click Here

https://moviesjug.net/18-the-choice-2019-s01-complete-720p-480p-download-watch/



<:==VISIT OUR SITE==:>


https://moviesjug.net/








<:==SCREENSHOTS==:>

























<:==MEDIA INFO==:>



General
18+ The Choice 2019 S01 Complete 720p/480p Download/Watch
Format : Matroska
Format version : Version 4 / Version 2
File size : 155 MiB
Duration : 11 min 17 s
Overall bit rate : 1 924 kb/s
Movie name : 18+ The Choice 2019 S01 Complete 720p/480p Download/Watch

Video
ID : 1
Format : AVC
Format/Info : Advanced Video Codec
Format profile : [email protected]
Format settings : 3 Ref Frames
Format settings, CABAC : No
Format settings, RefFrames : 3 frames
Codec ID : V_MPEG4/ISO/AVC
Duration : 11 min 17 s
Bit rate : 1 800 kb/s
Width : 1 280 pixels
Height : 720 pixels
Display aspect ratio : 16:9
Frame rate mode : Constant
Frame rate : 25.000 FPS
Color space : YUV
Chroma subsampling : 4:2:0
Bit depth : 8 bits
Scan type : Progressive
Bits/(Pixel*Frame) : 0.078
Stream size : 145 MiB (93%)
Title : 18+ The Choice 2019 S01 Complete 720p/480p Download/Watch
Language : Hindi
Default : Yes
Forced : No

Audio
ID : 2
Format : AAC
Format/Info : Advanced Audio Codec
Format profile : LC
Codec ID : A_AAC-2
Duration : 11 min 17 s
Bit rate : 127 kb/s
Channel(s) : 2 channels
Channel positions : Front: L R
Sampling rate : 48.0 kHz
Frame rate : 46.875 FPS (1024 SPF)
Compression mode : Lossy
Stream size : 10.3 MiB (7%)
Title : 18+ The Choice 2019 S01 Complete 720p/480p Download/Watch
Language : Hindi
Default : Yes
Forced : No



Files:

18+ The Choice 2019 Hindi Hot WebSeries Ullu Original S01 Ep (01-03) 720p WEBHD
  • Read this (Important).txt (0.1 KB)
  • Visit Our Site www.Moviesjug.net Click Here.url (0.1 KB)
  • The Choice 2019 Hindi [Moviesjug.net] S01 Ep 03 720p WEBHD.mkv (124.8 MB)
  • The Choice 2019 Hindi [Moviesjug.net] S01 Ep 01 720p WEBHD.mkv (155.4 MB)
  • The Choice 2019 Hindi [Moviesjug.net] S01 Ep 02 720p WEBHD.mkv (160.6 MB)

There are currently no comments. Feel free to leave one :)

Code:

  • udp://tracker.openbittorrent.com:80/announce
  • udp://tracker.opentrackr.org:1337/announce
  • udp://tracker.leechers-paradise.org:6969/announce
  • udp://tracker.coppersurfer.tk:6969/announce
  • udp://tracker.opentrackr.org:1337/announce
  • udp://tracker.zer0day.to:1337/announce
  • udp://eddie4.nl:6969/announce
/b9/11/dd/b911dd24346fb11d7de6ffc178a125d6.js'>