Ralph Breaks the Internet 2018 1080p BluRay x264 DTS 5.1 MSubS - ...

  • Category Movies
  • Type HD
  • Language English
  • Total size 4.4 GB
  • Uploaded By Hon3yHD
  • Downloads 494
  • Last checked 8 months ago
  • Date uploaded 8 months ago
  • Seeders 15
  • Leechers 10

Ralph Breaks the Internet

FamilyAnimation

Taking place six years following the events of the first film, the story will center on Ralph's adventures in the Internet data space when a Wi-Fi router gets plugged into the arcade as he must find a replacement part to fix Sugar Rush.

Infohash : 31C577F62EAB0BE43016321C7D13FBC9F735FD46





Ralph Breaks the Internet 2018 1080p BluRay x264 DTS 5.1 MSubS - Hon3yHD

Source: Remux @ Scene

Format : Matroska
Format version : Version 4 / Version 2
File size : 4.37 GiB
Duration : 1 h 52 min
Overall bit rate : 5 564 kb/s
Movie name : Ralph.Breaks.the.Internet.2018 - Hon3yHD


Video
ID : 1
Format : AVC
Format/Info : Advanced Video Codec
Format profile : [email protected]
Format settings, CABAC : Yes
Format settings, ReFrames : 5 frames
Codec ID : V_MPEG4/ISO/AVC
Duration : 1 h 52 min
Bit rate : 4 602 kb/s
Width : 1 920 pixels
Height : 800 pixels
Display aspect ratio : 2.40:1
Frame rate mode : Constant
Frame rate : 23.976 (24000/1001) FPS
Language : English
Default : Yes
Forced : No
Color range : Limited
Color primaries : BT.709
Transfer characteristics : BT.709
Matrix coefficients : BT.709

Audio #1
ID : 2
Format : DTS
Format/Info : Digital Theater Systems
Mode : 16
Format settings, Endianness : Big
Codec ID : A_DTS
Duration : 1 h 52 min
Bit rate mode : Constant
Bit rate : 768 kb/s
Channel(s) : 6 channels
Channel positions : Front: L C R, Side: L R, LFE
Sampling rate : 48.0 kHz
Frame rate : 93.750 FPS (512 spf)
Bit depth : 24 bits
Compression mode : Lossy
Stream size : 618 MiB (14%)
Language : English
Default : Yes
Forced : No

Audio #2
ID : 3
Format : AC-3
Format/Info : Audio Coding 3
Mode extension : CM (complete main)
Format settings, Endianness : Big
Codec ID : A_AC3
Duration : 1 h 52 min
Bit rate mode : Constant
Bit rate : 192 kb/s
Channel(s) : 2 channels
Channel positions : Front: L R
Sampling rate : 48.0 kHz
Frame rate : 31.250 FPS (1536 spf)
Bit depth : 16 bits
Compression mode : Lossy
Stream size : 155 MiB (3%)
Title : Commentary
Language : English
Default : No
Forced : No

Text #1
ID : 4
Format : UTF-8
Codec ID : S_TEXT/UTF8
Codec ID/Info : UTF-8 Plain Text
Duration : 1 h 51 min
Bit rate : 76 b/s
Count of elements : 1861
Stream size : 62.7 KiB (0%)
Language : English
Default : Yes
Forced : No

Text #2
ID : 5
Format : UTF-8
Codec ID : S_TEXT/UTF8
Codec ID/Info : UTF-8 Plain Text
Duration : 1 h 51 min
Bit rate : 89 b/s
Count of elements : 2456
Stream size : 73.2 KiB (0%)
Title : SDH
Language : English
Default : No
Forced : No

Menu
00:00:00.000 : en:Chapter 01
00:04:09.666 : en:Chapter 02
00:11:07.416 : en:Chapter 03
00:17:28.922 : en:Chapter 04
00:23:43.880 : en:Chapter 05
00:27:54.589 : en:Chapter 06
00:34:18.806 : en:Chapter 07
00:41:39.955 : en:Chapter 08
00:51:27.709 : en:Chapter 09
00:58:04.606 : en:Chapter 10
01:01:50.957 : en:Chapter 11
01:06:17.640 : en:Chapter 12
01:12:31.805 : en:Chapter 13
01:19:10.537 : en:Chapter 14
01:27:24.030 : en:Chapter 15
01:38:26.775 : en:Chapter 16






Files:

Ralph Breaks the Internet 2018 1080p BluRay x264 DTS 5.1 MSubS - Hon3yHD
  • Hon3yHD.com.txt (0.0 KB)
  • Torrent Seed By www.cyber-planet.in.txt (0.1 KB)
  • Sample.mkv (45.6 MB)
  • Ralph Breaks the Internet 2018 1080p BluRay x264 DTS 5.1 MSubS - Hon3yHD.mkv (4.4 GB)

Comments

Code:

  • udp://tracker.opentrackr.org:1337/announce
  • udp://9.rarbg.me:2800/announce
  • udp://9.rarbg.com:2800/announce
  • udp://shadowshq.yi.org:6969/announce
  • udp://p4p.arenabg.com:1337/announce
  • udp://ipv4.tracker.harry.lu:80/announce
  • udp://tracker.leechers-paradise.org:6969/announce
  • udp://tracker.eddie4.nl:6969/announce
  • udp://shadowshq.eddie4.nl:6969/announce
  • udp://tracker.coppersurfer.tk:80/announce
  • udp://tracker.coppersurfer.tk:6969/announce
  • udp://9.rarbg.me:2800/announce
  • udp://9.rarbg.to:2790/announce
  • udp://p4p.arenabg.ch:1337/announce
  • udp://tracker.zer0day.to:1337/announce
  • udp://tracker.leechers-paradise.org:6969/announce
  • udp://coppersurfer.tk:6969/announce
/08/e7/ff/08e7ffd6a1ad8052c7c702273b643766.js'>