Total Dhamaal 2019 Hindi 720p PRE-DVDRip x264 [MW]

  • Category Movies
  • Type Bollywood
  • Language Hindi
  • Total size 1.2 GB
  • Uploaded By moviezworldz
  • Downloads 18493
  • Last checked 2 months ago
  • Date uploaded 2 months ago
  • Seeders 319
  • Leechers 115

Total Dhamaal

ComedyActionAdventure

The third installment of the Dhamaal film series.

Infohash : 205CB8785F060AA06F362F65A4CFC40C70A18E6B





General
Format : Matroska
Format version : Version 4
File size : 1.17 GiB
Duration : 2 h 3 min
Overall bit rate : 1 346 kb/s

Video
ID : 1
Format : AVC
Format/Info : Advanced Video Codec
Format profile : [email protected]
Format settings : CABAC / 4 Ref Frames
Format settings, CABAC : Yes
Format settings, RefFrames : 4 frames
Codec ID : V_MPEG4/ISO/AVC
Duration : 2 h 3 min
Bit rate : 1 200 kb/s
Width : 1 280 pixels
Height : 576 pixels
Display aspect ratio : 2.222
Frame rate mode : Constant
Frame rate : 25.000 FPS
Color space : YUV
Chroma subsampling : 4:2:0
Bit depth : 8 bits
Scan type : Progressive
Bits/(Pixel*Frame) : 0.065
Stream size : 1.05 GiB (90%)
Writing library : x264 core 157 r2935 545de2f

Audio
ID : 2
Format : AAC LC
Codec ID : A_AAC-2
Duration : 2 h 3 min
Bit rate : 129 kb/s
Channel(s) : 2 channels
Channel layout : L R
Sampling rate : 48.0 kHz
Frame rate : 46.875 FPS (1024 SPF)
Compression mode : Lossy
Stream size : 114 MiB (10%)
Language : Hindi
Default : Yes
Forced : No


Click To View Image







Files:

Total Dhamaal 2019 Hindi 720p PRE-DVDRip x264 [MW]
  • Total Dhamaal 2019 Hindi 720p PRE-DVDRip x264 [MW].mkv (1.2 GB)

Comments

Code:

  • udp://tracker.coppersurfer.tk:6969/announce
  • udp://9.rarbg.to:2790/announce
  • udp://9.rarbg.me:2770/announce
  • udp://tracker.opentrackr.org:1337/announce
  • udp://eddie4.nl:6969/announce
  • udp://shadowshq.yi.org:6969/announce
  • udp://tracker.leechers-paradise.org:6969/announce
  • udp://tracker.tiny-vps.com:6969/announce
  • udp://inferno.demonoid.pw:3391/announce
  • udp://tracker.pirateparty.gr:6969/announce
  • udp://open.stealth.si:80/announce
  • udp://tracker.torrent.eu.org:451/announce
  • udp://tracker.open-internet.nl:6969/announce
  • udp://coppersurfer.tk:6969/announce
/08/e7/ff/08e7ffd6a1ad8052c7c702273b643766.js'>