The Favourite 2018 1080p BluRay x264 DTS 5.1 MSubS - Hon3yHD

  • CategoryMovies
  • TypeHD
  • LanguageEnglish
  • Total size4.4 GB
  • Uploaded ByHon3yHD
  • Downloads139
  • Last checkedApr. 30th '19
  • Date uploadedApr. 30th '19
  • Seeders 7
  • Leechers5

The Favourite

Drama History Comedy

In 18th century England, the close relationship between Queen Anne and Sarah Churchill is threatened by the arrival of Sarah's cousin, Abigail Hill, resulting in a bitter rivalry between the two cousins to be the Queen's favourite.

Infohash : CB6577B2572E0FB882A299576F90EF6CC51C59A7




The Favourite 2018 1080p BluRay x264 DTS 5.1 MSubS - Hon3yHD


Source Remux @ Scene.Thanks !

Format : Matroska
Format version : Version 4 / Version 2
File size : 4.36 GiB
Duration : 1 h 59 min
Overall bit rate : 5 223 kb/s
Movie name : The.Favourite.2018 - Hon3yHD


Video
ID : 1
Format : AVC
Format/Info : Advanced Video Codec
Format profile : [email protected]
Format settings, CABAC : Yes
Format settings, ReFrames : 4 frames
Codec ID : V_MPEG4/ISO/AVC
Duration : 1 h 59 min
Bit rate : 4 452 kb/s
Width : 1 920 pixels
Height : 1 040 pixels
Display aspect ratio : 1.85:1
Frame rate mode : Constant
Frame rate : 23.976 (24000/1001) FPS
Language : English
Default : Yes
Forced : No
Color range : Limited
Color primaries : BT.709
Transfer characteristics : BT.709
Matrix coefficients : BT.709

Audio
ID : 2
Format : DTS
Format/Info : Digital Theater Systems
Mode : 16
Format settings, Endianness : Big
Codec ID : A_DTS
Duration : 1 h 59 min
Bit rate mode : Constant
Bit rate : 768 kb/s
Channel(s) : 6 channels
Channel positions : Front: L C R, Side: L R, LFE
Sampling rate : 48.0 kHz
Frame rate : 93.750 FPS (512 spf)
Bit depth : 24 bits
Compression mode : Lossy
Stream size : 656 MiB (15%)
Language : English
Default : Yes
Forced : No

Text #1
ID : 3
Format : UTF-8
Codec ID : S_TEXT/UTF8
Codec ID/Info : UTF-8 Plain Text
Duration : 1 h 57 min
Bit rate : 57 b/s
Count of elements : 1584
Stream size : 49.5 KiB (0%)
Title : SDH
Language : English
Default : Yes
Forced : No

Text #2
ID : 4
Format : UTF-8
Codec ID : S_TEXT/UTF8
Codec ID/Info : UTF-8 Plain Text
Duration : 1 h 55 min
Bit rate : 52 b/s
Count of elements : 1395
Stream size : 43.9 KiB (0%)
Language : English
Default : No
Forced : No

Text #3
ID : 5
Format : UTF-8
Codec ID : S_TEXT/UTF8
Codec ID/Info : UTF-8 Plain Text
Duration : 1 h 57 min
Bit rate : 46 b/s
Count of elements : 1315
Stream size : 40.1 KiB (0%)
Language : Spanish
Default : No
Forced : No

Text #4
ID : 6
Format : UTF-8
Codec ID : S_TEXT/UTF8
Codec ID/Info : UTF-8 Plain Text
Duration : 1 h 57 min
Bit rate : 51 b/s
Count of elements : 1316
Stream size : 44.1 KiB (0%)
Language : French
Default : No
Forced : No

Text #5
ID : 7
Format : UTF-8
Codec ID : S_TEXT/UTF8
Codec ID/Info : UTF-8 Plain Text
Duration : 1 h 58 min
Bit rate : 1 b/s
Count of elements : 41
Stream size : 1.24 KiB (0%)
Language : French
Default : No
Forced : No

Menu
00:00:00.000 : en:Chapter 01
00:18:36.323 : en:Chapter 02
00:40:35.266 : en:Chapter 03
00:46:44.134 : en:Chapter 04
01:06:23.145 : en:Chapter 05
01:15:12.466 : en:Chapter 06
01:28:32.473 : en:Chapter 07
01:36:55.768 : en:Chapter 08








Files:

The Favourite 2018 1080p BluRay x264 DTS 5.1 MSubS - Hon3yHD
  • Hon3yHD.com.txt (0.0 KB)
  • Torrent Seed By www.cyber-planet.in.txt (0.1 KB)
  • Sample.mkv (23.2 MB)
  • The Favourite 2018 1080p BluRay x264 DTS 5.1 MSubS - Hon3yHD.mkv (4.4 GB)

Code:

  • udp://tracker.opentrackr.org:1337/announce
  • udp://9.rarbg.me:2800/announce
  • udp://9.rarbg.com:2800/announce
  • udp://shadowshq.yi.org:6969/announce
  • udp://p4p.arenabg.com:1337/announce
  • udp://ipv4.tracker.harry.lu:80/announce
  • udp://tracker.leechers-paradise.org:6969/announce
  • udp://tracker.eddie4.nl:6969/announce
  • udp://shadowshq.eddie4.nl:6969/announce
  • udp://tracker.coppersurfer.tk:80/announce
  • udp://tracker.coppersurfer.tk:6969/announce
  • udp://9.rarbg.me:2800/announce
  • udp://9.rarbg.to:2790/announce
  • udp://p4p.arenabg.ch:1337/announce
  • udp://tracker.zer0day.to:1337/announce
  • udp://tracker.leechers-paradise.org:6969/announce
  • udp://coppersurfer.tk:6969/announce