The.Lego.Movie.2.The.Second.Part.2019.1080p.WEBRip.x265.HEVCBay

  • Category Movies
  • Type HEVC/x265
  • Language English
  • Total size 652.4 MB
  • Uploaded By g3m696
  • Downloads 311
  • Last checked 10 minutes ago
  • Date uploaded 1 day ago
  • Seeders 44
  • Leechers 17

The Lego Movie 2: The Second Part

ActionAdventureAnimationComedyFamilyScience FictionFantasy

It's been five years since everything was awesome and the citizens are facing a huge new threat: LEGO DUPLO® invaders from outer space, wrecking everything faster than they can rebuild.

Infohash : 8454D7244CCC9C28B5A4F221356B919A9FE5F223

hevcbay.com

Code:

General
Unique ID : 161569571272282500659556539737483964921 (0x798D2AE40018B3AD4D8DFB209D0AF1F9)
Complete name : The.Lego.Movie.2.The.Second.Part.2019.1080p.WEBRip.x265.HEVCBay.com.mkv
Format : Matroska
Format version : Version 4
File size : 652 MiB
Duration : 1 h 45 min
Overall bit rate : 866 kb/s
Movie name : The.Lego.Movie.2.The.Second.Part.2019.1080p.WEBRip.x265.HEVCBay.com.mkv
Encoded date : UTC 2019-03-13 01:59:28
Writing application : hevcbay
Writing library : hevcbay.com / Lavf58.26.101
Comment : Encoded by hevcbay.com
ENCODED-BY : hevcbay.com

Video
ID : 1
Format : HEVC
Format/Info : High Efficiency Video Coding
Format profile : [email protected]@Main
Codec ID : V_MPEGH/ISO/HEVC
Duration : 1 h 45 min
Bit rate : 816 kb/s
Width : 1 920 pixels
Height : 800 pixels
Display aspect ratio : 2.40:1
Frame rate mode : Variable
Frame rate : 29.970 FPS
Color space : YUV
Chroma subsampling : 4:2:0
Bit depth : 8 bits
Bits/(Pixel*Frame) : 0.018
Stream size : 614 MiB (94%)
Title : The.Lego.Movie.2.The.Second.Part.2019.1080p.WEBRip.x264.AAC2.0-STUTTERSHIT
Writing library : Lavc58.47.103 libx265
Default : Yes
Forced : No
Color range : Limited

Audio
ID : 2
Format : AAC LC SBR PS
Format/Info : Advanced Audio Codec Low Complexity with Spectral Band Replication and Parametric Stereo
Commercial name : HE-AACv2
Format settings : NBC
Codec ID : A_AAC-29
Duration : 1 h 45 min
Bit rate : 48.0 kb/s
Channel(s) : 2 channels
Channel layout : C
Sampling rate : 48.0 kHz
Frame rate : 23.438 FPS (2048 SPF)
Compression mode : Lossy
Stream size : 36.4 MiB (6%)
Title : The.Lego.Movie.2.The.Second.Part.2019.1080p.WEBRip.x264.AAC2.0-STUTTERSHIT
Writing library : Lavc58.47.103 libfdk_aac
Language : English
Default : Yes
Forced : No






Files:

  • The.Lego.Movie.2.The.Second.Part.2019.1080p.WEBRip.x265.HEVCBay.com.mkv (652.4 MB)

There are currently no comments. Feel free to leave one :)

Code:

  • udp://tracker.open-internet.nl:6969/announce
  • udp://tracker.leechers-paradise.org:6969/announce
  • udp://tracker.opentrackr.org:1337/announce
  • http://tracker.opentrackr.org:1337/announce
  • http://tracker.internetwarriors.net:1337/announce
  • udp://tracker.internetwarriors.net:1337/announce
  • udp://9.rarbg.to:2710/announce
  • udp://9.rarbg.me:2710/announce
  • udp://tracker.coppersurfer.tk:6969/announce
  • udp://exodus.desync.com:6969/announce
  • udp://explodie.org:6969/announce
  • http://explodie.org:6969/announce
  • udp://tracker1.itzmx.com:8080/announce
  • http://tracker3.itzmx.com:6961/announce
  • http://tracker1.itzmx.com:8080/announce
  • udp://tracker2.itzmx.com:6961/announce
  • http://tracker2.itzmx.com:6961/announce
  • udp://ipv4.tracker.harry.lu:80/announce
  • udp://tracker.tiny-vps.com:6969/announce
  • udp://thetracker.org:80/announce
  • udp://denis.stalker.upeer.me:6969/announce
  • udp://tracker.torrent.eu.org:451/announce
  • udp://open.stealth.si:80/announce
  • udp://open.demonii.si:1337/announce
  • udp://tracker.trackton.ga:7070/announce
  • udp://tracker.filemail.com:6969/announce
  • udp://tracker.cyberia.is:6969/announce
  • udp://retracker.lanta-net.ru:2710/announce
  • udp://hk1.opentracker.ga:6969/announce
  • udp://bt.oiyo.tk:6969/announce
  • http://vps02.net.orel.ru:80/announce
  • http://re-tracker.uz:80/announce
  • http://open.acgnxtracker.com:80/announce
  • udp://tracker.port443.xyz:6969/announce
  • udp://tracker.nyaa.uk:6969/announce
  • udp://retracker.netbynet.ru:2710/announce
  • https://tracker.fastdownload.xyz:443/announce
  • https://t.quic.ws:443/announce
  • https://opentracker.xyz:443/announce
  • http://tracker.port443.xyz:6969/announce
  • http://torrent.nwps.ws:80/announce
  • http://opentracker.xyz:80/announce
  • http://open.trackerlist.xyz:80/announce
  • udp://tracker4.itzmx.com:2710/announce
  • udp://tracker.tvunderground.org.ru:3218/announce
  • udp://tracker.skynetcloud.tk:6969/announce
  • udp://tracker.novg.net:6969/announce
  • udp://tracker.moeking.me:6969/announce
  • udp://tracker.iamhansen.xyz:2000/announce
  • udp://tracker.filepit.to:6969/announce
  • udp://tracker.dyn.im:6969/announce
  • udp://torrentclub.tech:6969/announce
  • udp://retracker.sevstar.net:2710/announce
  • udp://retracker.baikal-telecom.net:2710/announce
  • udp://pubt.in:2710/announce
  • https://tracker.gbitt.info:443/announce
  • https://1.tracker.eu.org:443/announce
  • http://tracker4.itzmx.com:2710/announce
  • http://tracker.tvunderground.org.ru:3218/announce
  • http://tracker.openzim.org:80/announce
  • http://tracker.novg.net:6969/announce
  • http://tracker.gbitt.info:80/announce
  • http://tracker.bz:80/announce
  • http://torrentclub.tech:6969/announce
  • http://t.nyaatracker.com:80/announce
  • http://retracker.mgts.by:80/announce
  • http://open.acgtracker.com:1096/announce
  • wss://tracker.openwebtorrent.com:443/announce
  • wss://tracker.fastcast.nz:443/announce
  • udp://zephir.monocul.us:6969/announce
  • udp://tracker.open-tracker.org:1337/announce
  • udp://tracker.justseed.it:1337/announce
  • udp://packages.crunchbangplusplus.org:6969/announce
  • udp://chihaya.toss.li:9696/announce
  • udp://a.leopard-raws.org:6969/announce
  • https://1337.abcvg.info:443/announce
  • http://tracker.torrentyorg.pl:80/announce
  • http://tracker.tfile.me:80/announce
  • http://tracker.open-tracker.org:1337/announce
  • http://t.acg.rip:6699/announce
  • http://share.camoe.cn:8080/announce
  • http://peersteers.org:80/announce