Luther (2010) Seasons 1-5 S01-S05 (1080p BluRay x265 HEVC 10bit A...

  • Category TV
  • Type HEVC/x265
  • Language English
  • Total size 24.9 GB
  • Uploaded By Vyndros
  • Downloads 257
  • Last checked 12 hours ago
  • Date uploaded 1 day ago
  • Seeders 19
  • Leechers 49

Infohash : 502D80B9A7606D56F22DBDA6B5BDD4122B37596D










Media Information


Code:

General
Format                                   : Matroska
Format version                           : Version 4 / Version 2
File size                                : 1.34 GiB
Duration                                 : 58 min 9 s
Overall bit rate                         : 3 287 kb/s
Movie name                               : Luther.S02E03
Encoded date                             : UTC 2019-03-05 14:57:41
Writing application                      : mkvmerge v20.0.0 ('I Am The Sun') 64-bit
Writing library                          : libebml v1.3.5 + libmatroska v1.4.8
Writing frontend                         : StaxRip v1.7.0.6

Video
ID                                       : 1
Format                                   : HEVC
Format/Info                              : High Efficiency Video Coding
Format profile                           : Main [email protected]@Main
Codec ID                                 : V_MPEGH/ISO/HEVC
Duration                                 : 58 min 9 s
Bit rate                                 : 2 982 kb/s
Width                                    : 1 920 pixels
Height                                   : 1 080 pixels
Display aspect ratio                     : 16:9
Frame rate mode                          : Constant
Frame rate                               : 25.000 FPS
Color space                              : YUV
Chroma subsampling                       : 4:2:0
Bit depth                                : 10 bits
Bits/(Pixel*Frame)                       : 0.058
Stream size                              : 1.21 GiB (91%)
Writing library                          : x265 3.0_Au+8-31ab7e09a3b5:[Windows][GCC 8.3.0][64 bit] 10bit
Encoding settings                        : cpuid=1111039 / frame-threads=3 / numa-pools=12 / wpp / no-pmode / no-pme / no-psnr / ssim / log-level=2 / input-csp=1 / input-res=1920x1080 / interlace=0 / total-frames=87226 / level-idc=0 / high-tier=1 / uhd-bd=0 / ref=3 / no-allow-non-conformance / no-repeat-headers / annexb / no-aud / no-hrd / info / hash=0 / no-temporal-layers / open-gop / min-keyint=25 / keyint=250 / gop-lookahead=0 / bframes=8 / b-adapt=2 / b-pyramid / bframe-bias=0 / rc-lookahead=50 / lookahead-slices=6 / scenecut=40 / radl=0 / no-splice / no-intra-refresh / ctu=64 / min-cu-size=8 / no-rect / no-amp / max-tu-size=32 / tu-inter-depth=1 / tu-intra-depth=1 / limit-tu=0 / rdoq-level=0 / dynamic-rd=0.00 / no-ssim-rd / signhide / no-tskip / nr-intra=0 / nr-inter=0 / no-constrained-intra / no-strong-intra-smoothing / max-merge=3 / limit-refs=3 / no-limit-modes / me=3 / subme=5 / merange=57 / temporal-mvp / weightp / no-weightb / no-analyze-src-pics / deblock=0:0 / sao / no-sao-non-deblock / rd=3 / no-early-skip / no-rskip / no-fast-intra / no-tskip-fast / no-cu-lossless / no-b-intra / no-splitrd-skip / rdpenalty=0 / psy-rd=2.00 / psy-rdoq=0.00 / no-rd-refine / no-lossless / cbqpoffs=0 / crqpoffs=0 / rc=crf / crf=20.0 / qcomp=0.60 / qpstep=4 / stats-write=0 / stats-read=0 / ipratio=1.40 / pbratio=1.30 / aq-mode=3 / aq-strength=1.00 / cutree / zone-count=0 / no-strict-cbr / qg-size=32 / no-rc-grain / qpmax=69 / qpmin=0 / no-const-vbv / sar=0 / overscan=0 / videoformat=5 / range=0 / colorprim=2 / transfer=2 / colormatrix=2 / chromaloc=0 / display-window=0 / max-cll=0,0 / min-luma=0 / max-luma=1023 / log2-max-poc-lsb=8 / vui-timing-info / vui-hrd-info / slices=1 / no-opt-qp-pps / no-opt-ref-list-length-pps / no-multi-pass-opt-rps / scenecut-bias=0.05 / no-opt-cu-delta-qp / no-aq-motion / no-hdr / no-hdr-opt / no-dhdr10-opt / no-idr-recovery-sei / analysis-reuse-level=5 / scale-factor=0 / refine-intra=0 / refine-inter=0 / refine-mv=0 / refine-ctu-distortion=0 / no-limit-sao / ctu-info=0 / no-lowpass-dct / refine-analysis-type=0 / copy-pic=1 / max-ausize-factor=1.0 / no-dynamic-refine / no-single-sei / no-hevc-aq / no-svt / qp-adaptation-range=1.00
Default                                  : Yes
Forced                                   : No

Audio
ID                                       : 2
Format                                   : AAC
Format/Info                              : Advanced Audio Codec
Format profile                           : LC
Codec ID                                 : A_AAC
Duration                                 : 58 min 9 s
Bit rate                                 : 288 kb/s
Channel(s)                               : 2 channels
Channel positions                        : Front: L R
Sampling rate                            : 48.0 kHz
Frame rate                               : 46.875 FPS (1024 spf)
Compression mode                         : Lossy
Stream size                              : 122 MiB (9%)
Language                                 : English
Default                                  : Yes
Forced                                   : No

Subtitle
ID                                       : 3
Format                                   : PGS
Muxing mode                              : zlib
Codec ID                                 : S_HDMV/PGS
Codec ID/Info                            : Picture based subtitle format used on BDs/HD-DVDs
Duration                                 : 57 min 41 s
Bit rate                                 : 34.3 kb/s
Count of elements                        : 1126
Stream size                              : 14.1 MiB (1%)
Language                                 : English
Default                                  : No
Forced                                   : No



Source Information


Code:

Release:
BluRay Remux


Files:

Luther (2010) Seasons 1-5 S01-S05 (1080p BluRay x265 HEVC 10bit AAC 5.1 Vyndros) Season 1
  • Luther.S01E01.Episode.1.1080p.10bit.BluRay.AAC2.0.HEVC-Vyndros.mkv (1.4 GB)
  • Luther.S01E02.Episode.2.1080p.10bit.BluRay.AAC2.0.HEVC-Vyndros.mkv (1.5 GB)
  • Luther.S01E03.Episode.3.1080p.10bit.BluRay.AAC2.0.HEVC-Vyndros.mkv (1.5 GB)
  • Luther.S01E04.Episode.4.1080p.10bit.BluRay.AAC2.0.HEVC-Vyndros.mkv (2.0 GB)
  • Luther.S01E05.Episode.5.1080p.10bit.BluRay.AAC2.0.HEVC-Vyndros.mkv (1.6 GB)
  • Luther.S01E06.Episode.6.1080p.10bit.BluRay.AAC2.0.HEVC-Vyndros.mkv (1.4 GB)
Season 2
  • Luther.S02E01.Episode.1.1080p.10bit.BluRay.AAC2.0.HEVC-Vyndros.mkv (1.4 GB)
  • Luther.S02E02.Episode.2.1080p.10bit.BluRay.AAC2.0.HEVC-Vyndros.mkv (1.1 GB)
  • Luther.S02E03.Episode.3.1080p.10bit.BluRay.AAC2.0.HEVC-Vyndros.mkv (1.3 GB)
  • Luther.S02E04.Episode.4.1080p.10bit.BluRay.AAC2.0.HEVC-Vyndros.mkv (1.4 GB)
Season 3
  • Luther.S03E01.Episode.1.1080p.10bit.BluRay.AAC2.0.HEVC-Vyndros.mkv (1.1 GB)
  • Luther.S03E02.Episode.2.1080p.10bit.BluRay.AAC2.0.HEVC-Vyndros.mkv (993.5 MB)
  • Luther.S03E03.Episode.3.1080p.10bit.BluRay.AAC2.0.HEVC-Vyndros.mkv (1.2 GB)
  • Luther.S03E04.Episode.4.1080p.10bit.BluRay.AAC2.0.HEVC-Vyndros.mkv (1.1 GB)
Season 4
  • Luther.S04E01.Episode.1.1080p.10bit.BluRay.AAC5.1.HEVC-Vyndros.mkv (1.1 GB)
  • Luther.S04E02.Episode.1.1080p.10bit.BluRay.AAC5.1.HEVC-Vyndros.mkv (1.1 GB)
Season 5
  • Luther.S05E01.Episode.1.1080p.10bit.BluRay.AAC5.1.HEVC-Vyndros.mkv (1,013.5 MB)
  • Luther.S05E02.Episode.2.1080p.10bit.BluRay.AAC5.1.HEVC-Vyndros.mkv (957.0 MB)
  • Luther.S05E03.Episode.3.1080p.10bit.BluRay.AAC5.1.HEVC-Vyndros.mkv (1,018.7 MB)
  • Luther.S05E04.Episode.4.1080p.10bit.BluRay.AAC5.1.HEVC-Vyndros.mkv (957.0 MB)

Comments

Code:

  • udp://tracker.coppersurfer.tk:6969/announce
  • udp://tracker.zer0day.to:1337/announce
  • udp://tracker.opentrackr.org:1337/announce
  • udp://tracker.torrent.eu.org:451/announce
  • udp://tracker.ilibr.org:6969/announce
  • udp://tracker.leechers-paradise.org:6969/announce
  • udp://p4p.arenabg.com:1337/announce
  • udp://tracker.internetwarriors.net:1337/announce