Badla (2019) Hindi 720p HDRip x264 AAC 5.1 MSubs -UnknownStAr [Te...

  • Category Movies
  • Type Bollywood
  • Language Hindi
  • Total size 914.7 MB
  • Uploaded By UnknownStar
  • Downloads 59882
  • Last checked 3 weeks ago
  • Date uploaded 1 month ago
  • Seeders 91
  • Leechers 17

Badla

A lawyer investigates further into the suspicious circumstances surrounding the death of a young man.

Infohash : 6F072A3C429645FE58B064813C02337AEF68039E



Badla (2019) Hindi 720p HDRip x264 AAC 5.1 MSubs -UnknownStAr [Telly]

www.Tellytorrent.net

Format                                   : Matroska
Format version                           : Version 4
File size                                : 915 MiB
Duration                                 : 1 h 57 min
Overall bit rate                         : 1 096 kb/s

Video
ID                                       : 1
Format                                   : AVC
Format/Info                              : Advanced Video Codec
Format profile                           : [email protected]
Format settings                          : CABAC / 8 Ref Frames
Format settings, CABAC                   : Yes
Format settings, RefFrames               : 8 frames
Codec ID                                 : V_MPEG4/ISO/AVC
Duration                                 : 1 h 57 min
Bit rate                                 : 1 000 kb/s
Width                                    : 1 280 pixels
Height                                   : 536 pixels
Display aspect ratio                     : 2.40:1
Frame rate mode                          : Constant
Frame rate                               : 24.000 FPS

Audio
ID                                       : 2
Format                                   : AAC LC SBR
Format/Info                              : Advanced Audio Codec Low Complexity with Spectral Band Replication
Commercial name                          : HE-AAC
Duration                                 : 1 h 57 min
Bit rate                                 : 96.0 kb/s
Channel(s)                               : 6 channels
Channel layout                           : C L R Ls Rs LFE
Sampling rate                            : 48.0 kHz

Text #1
ID                                       : 3
Format                                   : UTF-8
Codec ID                                 : S_TEXT/UTF8
Codec ID/Info                            : UTF-8 Plain Text
Duration                                 : 1 h 48 min
Bit rate                                 : 65 b/s
Count of elements                        : 1698
Stream size                              : 51.8 KiB (0%)
Language                                 : English

Text #2
ID                                       : 4
Format                                   : UTF-8
Codec ID                                 : S_TEXT/UTF8
Codec ID/Info                            : UTF-8 Plain Text
Duration                                 : 1 h 44 min
Bit rate                                 : 34 b/s
Count of elements                        : 417
Stream size                              : 26.2 KiB (0%)
Language                                 : Hindi







Files:

Badla (2019) Hindi 720p HDRip x264 AAC 5.1 MSubs -UnknownStAr [Telly]
  • Badla (2019) Hindi 720p HDRip x264 AAC 5.1 MSubs -UnknownStAr [Telly].mkv (914.7 MB)
  • Tellytorrent.net.txt (0.0 KB)
  • Visit Us for More Movies And TV Shows Exclusive.txt (0.1 KB)

Comments

Code:

  • udp://tracker.opentrackr.org:1337/announce
  • http://tracker3.itzmx.com:6961/announce
  • http://tracker1.itzmx.com:8080/announce
  • udp://open.demonii.si:1337/announce
  • udp://tracker.tiny-vps.com:6969/announce
  • udp://thetracker.org:80/announce
  • udp://bt.firebit.co.uk:6969/announce
  • udp://tracker.leechers-paradise.org:6969/announce
  • udp://open.stealth.si:80/announce
  • udp://9.rarbg.to:2710/announce
  • udp://9.rarbg.me:2710/announce
  • udp://9.rarbg.com:2710/announce
  • udp://9.rarbg.me:2730/announce
  • udp://tracker.internetwarriors.net:1337/announce
  • http://tracker.electro-torrent.pl:80/announce
/08/e7/ff/08e7ffd6a1ad8052c7c702273b643766.js'>