After Porn Ends 3.2018.720p.WEB-DL.X264.LLG

  • Category Movies
  • Type HD
  • Language English
  • Total size 1.9 GB
  • Uploaded By LifeLongg
  • Downloads 2708
  • Last checked 3 months ago
  • Date uploaded 3 months ago
  • Seeders 55
  • Leechers 28

After Porn Ends 3

Documentary

After Porn Ends 3 continues to explore whether a career as an adult performer is inherently damaging to the balance of a perfomer's life once retired.

Infohash : 6455D8C088B7B7654D53D23CCFAB03A48C666C8F

Quote:




******************************Thumbnail:**********************



******************************Screenshots:********************

Screenshot 1

Screenshot 2

Screenshot 3

Screenshot 4

Screenshot 5

Screenshot 6

Screenshot 7

Screenshot 8

Screenshot 9

Screenshot 0


******************************************************

18+.After Porn Ends 3.2018.720p.WEB-DL.X264.LLG.mp4
Format : MPEG-4
Format profile : Base Media
Codec ID : isom (isom/iso2/avc1/mp41)
File size : 1.70 GiB
Duration : 1 h 26 min
Overall bit rate mode : Variable
Overall bit rate : 2 796 kb/s


Video
ID : 1
Format : AVC
Format/Info : Advanced Video Codec
Format profile : [email protected]
Format settings : CABAC / 1 Ref Frames
Format settings, CABAC : Yes
Format settings, Reference frames : 1 frame
Codec ID : avc1
Codec ID/Info : Advanced Video Coding
Duration : 1 h 26 min
Bit rate mode : Variable
Bit rate : 2 409 kb/s
Maximum bit rate : 7 500 kb/s
Width : 1 280 pixels
Height : 714 pixels
Display aspect ratio : 16:9
Frame rate mode : Constant
Frame rate : 23.976 (23976/1000) FPS
Color space : YUV
Chroma subsampling : 4:2:0
Bit depth : 8 bits
Scan type : Progressive
Bits/(Pixel*Frame) : 0.110
Stream size : 1.46 GiB (86%)
Language : English


Audio
ID : 2
Format : AC-3
Format/Info : Audio Coding 3
Commercial name : Dolby Digital
Codec ID : ac-3
Duration : 1 h 26 min
Bit rate mode : Constant
Bit rate : 384 kb/s
Channel(s) : 6 channels
Channel layout : L R C LFE Ls Rs
Sampling rate : 48.0 kHz
Frame rate : 31.250 FPS (1536 SPF)
Bit depth : 16 bits
Compression mode : Lossy
Stream size : 239 MiB (14%)
Language : English
Service kind : Complete Main
Default : Yes
Alternate group : 1



********************************************************


Files:

18+.After Porn Ends 3.2018.720p.WEB-DL.X264.LLG
  • SAMPLE.ts (22.5 MB)
  • SAMPLE 2.ts (219.6 MB)
  • 18+.After Porn Ends 3.2018.720p.WEB-DL.X264.LLG.mp4 (1.7 GB)

There are currently no comments. Feel free to leave one :)

Code:

  • udp://tracker.openbittorrent.com:80/announce
  • udp://tracker.opentrackr.org:1337/announce
  • UDP://TRACKER.LEECHERS-PARADISE.ORG:6969/ANNOUNCE
/08/e7/ff/08e7ffd6a1ad8052c7c702273b643766.js'>