Shazam (2019) 720p English HC-HDRip x264 Mp3 by Full4movies

  • Category Movies
  • Type h.264/x264
  • Language English
  • Total size 856.2 MB
  • Uploaded By shmasti
  • Downloads 8835
  • Last checked 3 months ago
  • Date uploaded 3 months ago
  • Seeders 237
  • Leechers 63

Shazam!

ActionComedyAdventureFantasy

A boy is given the ability to become an adult superhero in times of need with a single magic word.

Infohash : FD370AF869E4E85077383723D473AE47C242AB7F



General
Complete name                  : Shazam (2019) 720p English HC-HDRip x264 Mp3 by Full4movies.mkv
Format                         : Matroska
Format version                 : Version 4 / Version 2
File size                      : 856 MiB
Duration                       : 2 h 10 min
Overall bit rate               : 919 kb/s
Encoded date                   : UTC 2019-05-12 09:32:56
Writing application            : mkvmerge v8.0.0 ('Til The Day That I Die') 32bit
Writing library                : libebml v1.3.1 + libmatroska v1.4.2

Video
ID                             : 1
Format                         : AVC
Format/Info                    : Advanced Video Codec
Format profile                 : [email protected]
Format settings, CABAC         : Yes
Format settings, RefFrames     : 4 frames
Codec ID                       : V_MPEG4/ISO/AVC
Duration                       : 2 h 10 min
Bit rate                       : 828 kb/s
Width                          : 1 280 pixels
Height                         : 544 pixels
Display aspect ratio           : 2.35:1
Frame rate mode                : Constant
Frame rate                     : 30.000 FPS
Color space                    : YUV
Chroma subsampling             : 4:2:0
Bit depth                      : 8 bits
Scan type                      : Progressive
Bits/(Pixel*Frame)             : 0.040
Stream size                    : 765 MiB (89%)
Writing library                : x264 core 155 r2901 7d0ff22
Default                        : Yes
Forced                         : No
Color range                    : Limited
Color primaries                : BT.709
Transfer characteristics       : BT.709
Matrix coefficients            : BT.709

Audio
ID                             : 2
Format                         : MPEG Audio
Format version                 : Version 1
Format profile                 : Layer 3
Mode                           : Joint stereo
Mode extension                 : MS Stereo
Codec ID                       : A_MPEG/L3
Codec ID/Hint                  : MP3
Duration                       : 2 h 10 min
Bit rate mode                  : Constant
Bit rate                       : 96.0 kb/s
Channel(s)                     : 2 channels
Sampling rate                  : 48.0 kHz
Frame rate                     : 41.667 FPS (1152 SPF)
Compression mode               : Lossy
Delay relative to video        : -43 ms
Stream size                    : 89.5 MiB (10%)
Writing library                : LAME3.100
Language                       : English
Default                        : Yes
Forced                         : No

Screen shoot

Files:

  • Shazam (2019) 720p English HC-HDRip x264 Mp3 by Full4movies.mkv (856.2 MB)

Comments

Code:

  • udp://tracker.coppersurfer.tk:6969/announce
  • udp://tracker.leechers-paradise.org:6969/announce
  • udp://tracker.uw0.xyz:6969/announce
  • udp://tracker.internetwarriors.net:1337/announce
  • udp://open.stealth.si:80/announce
  • udp://explodie.org:6969/announce
  • udp://exodus.desync.com:6969
  • udp://tracker.tiny-vps.com:6969/announce
  • udp://open.demonii.si:1337/announcc
  • udp://tracker.torrent.eu.org:451/announce
  • udp://bt.xxx-tracker.com:2710/announce
  • udp://ipv4.tracker.harry.lu:80/announce
  • udp://tracker.cyberia.is:6969/announce
  • udp://9.rarbg.to:2710/announce
  • udp://denis.stalker.upeer.me:6969/announce
/08/e7/ff/08e7ffd6a1ad8052c7c702273b643766.js'>