Formula 1 2019 Spanish Grand Prix Barcelona HDTV x264 720

  • Category TV
  • Type HD
  • Language English
  • Total size 3.4 GB
  • Uploaded By HackRF
  • Downloads 1299
  • Last checked 1 week ago
  • Date uploaded 1 week ago
  • Seeders 46
  • Leechers 2

Infohash : E28DA4620430AB337CC8ABAF5701E11B964D1A71


Formula 1 2019


Spanish GP
Circuit de Barcelona-Catalunya
May 10-12 2019
ESPN2 - SkySports






General
Complete name : Formula 1 2019 Spanish Grand Prix Barcelona HDTV x264 720.mkv
Format : Matroska
Format version : Version 4
File size : 3.40 GiB
Duration : 1 h 52 min
Overall bit rate : 4 316 kb/s
Encoded date : UTC 2019-05-12 15:31:26
Writing application : mkvmerge v33.0.0 ('A Little Bit of Madness') 64-bit
Writing library : libebml v1.3.7 + libmatroska v1.5.0

Video
ID : 1
Format : AVC
Format/Info : Advanced Video Codec
Format profile : [email protected]
Format settings : CABAC / 5 Ref Frames
Format settings, CABAC : Yes
Format settings, RefFrames : 5 frames
Codec ID : V_MPEG4/ISO/AVC
Duration : 1 h 52 min
Bit rate : 3 928 kb/s
Width : 1 280 pixels
Height : 720 pixels
Display aspect ratio : 16:9
Frame rate mode : Constant
Frame rate : 59.940 (60000/1001) FPS
Color space : YUV
Chroma subsampling : 4:2:0
Bit depth : 8 bits
Scan type : Progressive
Bits/(Pixel*Frame) : 0.071
Stream size : 3.09 GiB (91%)
Writing library : x264 core 148 r2744 b97ae06
Default : Yes
Forced : No

Audio
ID : 2
Format : AC-3
Format/Info : Audio Coding 3
Commercial name : Dolby Digital
Codec ID : A_AC3
Duration : 1 h 52 min
Bit rate mode : Constant
Bit rate : 384 kb/s
Channel(s) : 6 channels
Channel layout : L R C LFE Ls Rs
Sampling rate : 48.0 kHz
Frame rate : 31.250 FPS (1536 SPF)
Bit depth : 16 bits
Compression mode : Lossy
Stream size : 310 MiB (9%)
Language : new
Service kind : Complete Main
Default : Yes
Forced : No

Files:

Formula 1 2019 Spanish Grand Prix Barcelona HDTV x264 720
  • Downloaded From.txt (0.1 KB)
  • Formula 1.txt (5.1 KB)
  • Formula 1 2019 Spanish Grand Prix Barcelona HDTV x264 720.mkv (3.4 GB)

Comments

Code:

  • udp://tracker.torrent.eu.org:451/announce
  • udp://thetracker.org:80/announce
  • udp://bt.xxx-tracker.com:2710/announce
  • udp://inferno.demonoid.pw:3418/announce
  • udp://tracker.justseed.it:1337/announce
  • udp://tracker.vanitycore.co:6969/announce
  • udp://open.stealth.si:80/announce
  • udp://tracker.coppersurfer.tk:6969/announce
  • udp://tracker.opentrackr.org:1337/announce
  • udp://tracker.cypherpunks.ru:6969/announce
  • udp://tracker.tiny-vps.com:6969/announce
  • udp://retracker.lanta-net.ru:2710/announce
  • udp://public.popcorn-tracker.org:6969/announce
  • udp://tracker.martlet.tk:6969/announce
  • udp://ipv4.tracker.harry.lu:80/announce
/08/e7/ff/08e7ffd6a1ad8052c7c702273b643766.js'>