Game.of.Thrones.S08E06.720p.10bit.WEBRip.6CH.x265.HEVC-PSA

  • Category TV
  • Type HEVC/x265
  • Language English
  • Total size 465.9 MB
  • Uploaded By Dakshvv
  • Downloads 12514
  • Last checked 2 minutes ago
  • Date uploaded 1 year ago
  • Seeders 208
  • Leechers 15
60%
May 20, 2019, 3:00 am

Infohash : 8F53D9F973954DC0706BB503020A57B013AF43DE

Game.of.Thrones.S08E06.720p.10bit.WEBRip.6CH.x265.HEVC-PSA


https://www.imdb.com/title/tt0944947/
Screenshot











Code:



*** General
Format : Matroska
Format version : Version 4
File size : 466 MiB
Duration : 1 h 19 min
Overall bit rate : 820 kb/s
Movie name : PSArips.com | Game.of.Thrones.S08E06.720p.10bit.WEBRip.6CH.x265.HEVC-PSA
Encoded date : UTC 2019-05-20 01:29:32
Writing application : mkvmerge v33.1.0 ('Primrose') 64-bit
Writing library : libebml v1.3.7 + libmatroska v1.5.0

*** Video
ID : 1
Format : HEVC
Format/Info : High Efficiency Video Coding
Format profile : Main [email protected]@Main
Codec ID : V_MPEGH/ISO/HEVC
Duration : 1 h 19 min
Bit rate : 628 kb/s
Width : 1 280 pixels
Height : 720 pixels
Display aspect ratio : 16:9
Frame rate mode : Constant
Frame rate : 23.976 (24000/1001) FPS
Color space : YUV
Chroma subsampling : 4:2:0
Bit depth : 10 bits
Bits/(Pixel*Frame) : 0.028
Stream size : 357 MiB (77%)
Default : Yes
Forced : No
Color range : Limited
Color primaries : BT.709
Transfer characteristics : BT.709
Matrix coefficients : BT.709

*** Audio
ID : 2
Format : AAC LC SBR
Format/Info : Advanced Audio Codec Low Complexity with Spectral Band Replication
Commercial name : HE-AAC
Format settings : Explicit
Codec ID : A_AAC-2
Duration : 1 h 19 min
Bit rate : 192 kb/s
Channel(s) : 6 channels
Channel layout : C L R Ls Rs LFE
Sampling rate : 48.0 kHz
Frame rate : 23.438 FPS (2048 SPF)
Compression mode : Lossy
Delay relative to video : 23 ms
Stream size : 108 MiB (23%)
Language : English
Default : Yes
Forced : No

*** Text
ID : 3
Format : UTF-8
Codec ID : S_TEXT/UTF8
Codec ID/Info : UTF-8 Plain Text
Duration : 1 h 17 min
Bit rate : 29 b/s
Count of elements : 629
Stream size : 16.7 KiB (0%)
Language : English
Default : Yes
Forced : No

Files:

  • Game.of.Thrones.S08E06.720p.10bit.WEBRip.6CH.x265.HEVC-PSA.mkv (465.9 MB)

Comments

Code:

  • udp://tracker.internetwarriors.net:1337/announce
  • udp://tracker.leechers-paradise.org:6969/announce
  • udp://tracker.coppersurfer.tk:6969/announce
  • udp://exodus.desync.com:6969/announce
  • udp://tracker.openbittorrent.com:80/announce
  • udp://tracker.sktorrent.net:6969/announce
  • udp://tracker.zer0day.to:1337/announce
  • udp://tracker.pirateparty.gr:6969/announce
  • udp://oscar.reyesleon.xyz:6969/announce