The Spy Who Fell to Earth 2019 1080p NF WEB-DL DD 5.1 x264 [MW]

  • Category Movies
  • Type HD
  • Language English
  • Total size 1.7 GB
  • Uploaded By moviezworldz
  • Downloads 250
  • Last checked 2 months ago
  • Date uploaded 2 months ago
  • Seeders 12
  • Leechers 7

The Spy Who Fell to Earth

Documentary

The life and mysterious death of Ashraf Marwan, an Egyptian billionaire and Israeli spy.

Infohash : E5F51D882A6A79955E5FA88C72770DC9E11DC050





General
Format : Matroska
Format version : Version 4
File size : 1.69 GiB
Duration : 1 h 34 min
Overall bit rate : 2 567 kb/s

Video
ID : 1
Format : AVC
Format/Info : Advanced Video Codec
Format profile : [email protected]
Format settings : CABAC / 4 Ref Frames
Format settings, CABAC : Yes
Format settings, Reference frames : 4 frames
Codec ID : V_MPEG4/ISO/AVC
Duration : 1 h 34 min
Bit rate : 2 200 kb/s
Width : 1 920 pixels
Height : 808 pixels
Display aspect ratio : 2.40:1
Frame rate mode : Constant
Frame rate : 25.000 FPS
Color space : YUV
Chroma subsampling : 4:2:0
Bit depth : 8 bits
Scan type : Progressive
Bits/(Pixel*Frame) : 0.057
Stream size : 1.43 GiB (85%)
Writing library : x264 core 157 r2935 545de2f

Audio
ID : 2
Format : AC-3
Format/Info : Audio Coding 3
Commercial name : Dolby Digital
Codec ID : A_AC3
Duration : 1 h 34 min
Bit rate mode : Constant
Bit rate : 384 kb/s
Channel(s) : 6 channels
Channel layout : L R C LFE Ls Rs
Sampling rate : 48.0 kHz
Frame rate : 31.250 FPS (1536 SPF)
Bit depth : 16 bits
Compression mode : Lossy
Stream size : 258 MiB (15%)
Language : English
Service kind : Complete Main

Text
ID : 3
Format : UTF-8
Codec ID : S_TEXT/UTF8
Codec ID/Info : UTF-8 Plain Text
Duration : 1 h 32 min
Bit rate : 73 b/s
Count of elements : 1270
Stream size : 49.9 KiB (0%)
Language : English
Default : Yes
Forced : No


Click To View Image






Files:

The Spy Who Fell to Earth 2019 1080p NF WEB-DL DD 5.1 x264 [MW]
  • The Spy Who Fell to Earth 2019 1080p NF WEB-DL DD 5.1 x264 [MW].mkv (1.7 GB)

There are currently no comments. Feel free to leave one :)

Code:

  • udp://tracker.coppersurfer.tk:6969/announce
  • udp://tracker.opentrackr.org:1337/announce
  • udp://torrent.gresille.org:80/announce
  • udp://9.rarbg.me:2710/announce
  • udp://p4p.arenabg.com:1337/announce
  • udp://tracker.internetwarriors.net:1337/announce
/08/e7/ff/08e7ffd6a1ad8052c7c702273b643766.js'>