The Equalizer 2 2018 1080p BluRay x264 DTS [MW]

  • Category Movies
  • Type HD
  • Language English
  • Total size 3.2 GB
  • Uploaded By moviezworldz
  • Downloads 451
  • Last checked 2 months ago
  • Date uploaded 2 months ago
  • Seeders 32
  • Leechers 9

The Equalizer 2

ThrillerActionCrime

Robert McCall returns to deliver his special brand of vigilante justice -- but how far will he go when it's someone he loves?

Infohash : 723121398320704211136EC4C563EA85D990AB97





General
Format : Matroska
Format version : Version 4
File size : 3.15 GiB
Duration : 2 h 0 min
Overall bit rate : 3 730 kb/s

Video
ID : 1
Format : AVC
Format/Info : Advanced Video Codec
Format profile : [email protected]
Format settings : CABAC / 4 Ref Frames
Format settings, CABAC : Yes
Format settings, Reference frames : 4 frames
Codec ID : V_MPEG4/ISO/AVC
Duration : 2 h 0 min
Bit rate : 3 000 kb/s
Width : 1 920 pixels
Height : 800 pixels
Display aspect ratio : 2.40:1
Frame rate mode : Constant
Frame rate : 23.976 (24000/1001) FPS
Color space : YUV
Chroma subsampling : 4:2:0
Bit depth : 8 bits
Scan type : Progressive
Bits/(Pixel*Frame) : 0.081
Stream size : 2.51 GiB (80%)
Writing library : x264 core 155 r2901 7d0ff20f

Audio
ID : 2
Format : DTS
Format/Info : Digital Theater Systems
Codec ID : A_DTS
Duration : 2 h 0 min
Bit rate mode : Constant
Bit rate : 756 kb/s
Channel(s) : 6 channels
Channel layout : C L R Ls Rs LFE
Sampling rate : 48.0 kHz
Frame rate : 93.750 FPS (512 SPF)
Bit depth : 16 bits
Compression mode : Lossy
Stream size : 654 MiB (20%)
Language : English

Text #1
ID : 3
Format : UTF-8
Codec ID : S_TEXT/UTF8
Codec ID/Info : UTF-8 Plain Text
Duration : 41 min 15 s
Bit rate : 0 b/s
Count of elements : 11
Stream size : 192 Bytes (0%)
Title : FORCED
Language : English
Default : No
Forced : Yes

Text #2
ID : 4
Format : UTF-8
Codec ID : S_TEXT/UTF8
Codec ID/Info : UTF-8 Plain Text
Duration : 1 h 52 min
Bit rate : 38 b/s
Count of elements : 1032
Stream size : 31.4 KiB (0%)
Language : English
Default : Yes
Forced : No

Text #3
ID : 5
Format : UTF-8
Codec ID : S_TEXT/UTF8
Codec ID/Info : UTF-8 Plain Text
Duration : 1 h 58 min
Bit rate : 43 b/s
Count of elements : 1315
Stream size : 38.1 KiB (0%)
Title : SDH
Language : English
Default : No
Forced : No


Click To View Image







Files:

The Equalizer 2 2018 1080p BluRay x264 DTS [MW]
  • The Equalizer 2 2018 1080p BluRay x264 DTS [MW].mkv (3.2 GB)

There are currently no comments. Feel free to leave one :)

Code:

  • udp://tracker.coppersurfer.tk:6969/announce
  • udp://tracker.opentrackr.org:1337/announce
  • udp://torrent.gresille.org:80/announce
  • udp://9.rarbg.me:2710/announce
  • udp://p4p.arenabg.com:1337/announce
  • udp://tracker.internetwarriors.net:1337/announce
/08/e7/ff/08e7ffd6a1ad8052c7c702273b643766.js'>