Aurora - A Different Kind Of Human – Step 2 (2019) [24bit Hi-Res]...

  • Category Music
  • Type Lossless
  • Language English
  • Total size 491.0 MB
  • Uploaded By was95was
  • Downloads 65
  • Last checked 5 hours ago
  • Date uploaded 1 day ago
  • Seeders 3
  • Leechers 0

Infohash : 202AE1B36D6935562E42CD6C014E661097AF6AB5



Quality-Lossless
Release-2019
Duration-00:40:04
File Size-511.0 MB
Genre-Pop
Cover Size-1400px

----------------------------------------------------------------------------------------------
Analyzed: A Different Kind Of Human – Step 2 / Artist: Aurora
----------------------------------------------------------------------------------------------
DR Peak RMS Duration Title [codec]
----------------------------------------------------------------------------------------------
DR5 -0.00 dB -7.67 dB 3:37 01 - The River [flac]
DR5 -0.00 dB -7.53 dB 3:35 02 - Animal [flac]
DR6 -0.00 dB -8.21 dB 3:35 03 - Dance On The Moon [flac]
DR5 -0.00 dB -8.14 dB 3:39 04 - Daydreamer [flac]
DR6 -0.00 dB -8.82 dB 2:46 05 - Hunger [flac]
DR6 -0.00 dB -9.13 dB 5:01 06 - Soulless Creatures [flac]
DR5 -0.00 dB -8.54 dB 3:58 07 - In Bottles [flac]
DR5 -0.00 dB -11.72 dB 4:00 08 - A Different Kind Of Human [flac]
DR5 -0.00 dB -8.26 dB 3:08 09 - Apple Tree [flac]
DR6 -0.00 dB -9.64 dB 4:25 10 - The Seed [flac]
DR10 -3.08 dB -18.96 dB 2:16 11 - Mothership [flac]
----------------------------------------------------------------------------------------------
Number of files: 11
Official DR value: DR6

Sampling rate: 48000 Hz
Average bitrate: 1683kbs
Bits per sample: 24 bit

Files:

Aurora - A Different Kind Of Human – Step 2 (2019) [24bit Hi-Res]
  • 01 - The River.flac (47.0 MB)
  • 02 - Animal.flac (46.4 MB)
  • 03 - Dance On The Moon.flac (44.8 MB)
  • 04 - Daydreamer.flac (45.5 MB)
  • 05 - Hunger.flac (33.6 MB)
  • 06 - Soulless Creatures.flac (61.2 MB)
  • 07 - In Bottles.flac (49.1 MB)
  • 08 - A Different Kind Of Human.flac (46.4 MB)
  • 09 - Apple Tree.flac (39.8 MB)
  • 10 - The Seed.flac (55.1 MB)
  • 11 - Mothership.flac (21.8 MB)
  • cover.jpg (341.1 KB)
  • dr14.txt (1.4 KB)

There are currently no comments. Feel free to leave one :)

Code:

  • udp://tracker.piratepublic.com:1337/announce
  • udp://tracker.pirateparty.gr:6969/announce
  • udp://tracker.coppersurfer.tk:6969/announce
  • udp://tracker.leechers-paradise.org:6969/announce
  • udp://9.rarbg.com:2710/announce
  • http://p4p.arenabg.com:1337/announce
  • http://tracker.internetwarriors.net:1337/announce
  • udp://tracker.opentrackr.org:1337/announce
  • udp://exodus.desync.com:6969/announce
  • udp://tracker.leechers-paradise.org:6969/announce
  • udp://tracker.zer0day.to:1337/announce
  • udp://eddie4.nl:6969/announce
  • udp://open.demonii.si:1337/announce
  • udp://tracker.iamhansen.xyz:2000/announce
/08/e7/ff/08e7ffd6a1ad8052c7c702273b643766.js'>