Heart - Heart (1985) Flac

  • Category Music
  • Type Lossless
  • Language English
  • Total size 282.3 MB
  • Uploaded By was95was
  • Downloads 145
  • Last checked 4 hours ago
  • Date uploaded 1 day ago
  • Seeders 8
  • Leechers 1

Infohash : CDB13D9CD83BAF0E320E6B793BACFBACD1962597



Quality-Lossless
Release-2019
Duration-00:39:18
File Size-296.0 MB
Genre-Rock
Cover Size-1200px

----------------------------------------------------------------------------------------------
Analyzed: Heart / Artist: Heart
----------------------------------------------------------------------------------------------
DR Peak RMS Duration Title [codec]
----------------------------------------------------------------------------------------------
DR9 -4.07 dB -15.72 dB 3:41 01 - If Looks Could Kill [flac]
DR12 -0.55 dB -15.46 dB 3:41 02 - What About Love [flac]
DR11 -3.16 dB -16.53 dB 4:05 03 - Never [flac]
DR11 -2.55 dB -17.69 dB 4:13 04 - These Dreams [flac]
DR11 -2.46 dB -15.24 dB 4:01 05 - The Wolf [flac]
DR11 -3.06 dB -15.50 dB 3:54 06 - All Eyes [flac]
DR11 -3.60 dB -17.31 dB 4:07 07 - Nobody Home [flac]
DR12 -1.81 dB -15.88 dB 4:08 08 - Nothin' At All [flac]
DR11 -2.92 dB -15.58 dB 3:39 09 - What He Don't Know [flac]
DR12 -2.22 dB -16.06 dB 3:41 10 - Shell Shock [flac]
----------------------------------------------------------------------------------------------
Number of files: 10
Official DR value: DR11

Sampling rate: 44100 Hz
Average bitrate: 1001kbs
Bits per sample: 16 bit

Files:

Heart - Heart (1985) Flac
  • 01 - If Looks Could Kill.flac (28.2 MB)
  • 02 - What About Love.flac (24.8 MB)
  • 03 - Never.flac (28.4 MB)
  • 04 - These Dreams.flac (26.9 MB)
  • 05 - The Wolf.flac (31.3 MB)
  • 06 - All Eyes.flac (29.9 MB)
  • 07 - Nobody Home.flac (26.8 MB)
  • 08 - Nothin' At All.flac (29.7 MB)
  • 09 - What He Don't Know.flac (27.2 MB)
  • 10 - Shell Shock.flac (28.5 MB)
  • [TGx]Downloaded from torrentgalaxy.org .txt (0.6 KB)
  • cover.jpg (644.7 KB)
  • dr14.txt (1.3 KB)
  • Torrent Downloaded from Glodls.to.txt (0.2 KB)
  • Torrent downloaded from limetorrents.cc.txt (0.1 KB)
  • Torrent Downloaded from worldwidetorrents.to (0.1 KB)

There are currently no comments. Feel free to leave one :)

Code:

  • udp://tracker.piratepublic.com:1337/announce
  • udp://tracker.pirateparty.gr:6969/announce
  • udp://tracker.coppersurfer.tk:6969/announce
  • udp://tracker.leechers-paradise.org:6969/announce
  • udp://9.rarbg.com:2710/announce
  • http://p4p.arenabg.com:1337/announce
  • http://tracker.internetwarriors.net:1337/announce
  • udp://tracker.opentrackr.org:1337/announce
  • udp://exodus.desync.com:6969/announce
  • udp://tracker.leechers-paradise.org:6969/announce
  • udp://tracker.zer0day.to:1337/announce
  • udp://eddie4.nl:6969/announce
  • udp://open.demonii.si:1337/announce
  • udp://tracker.iamhansen.xyz:2000/announce
/08/e7/ff/08e7ffd6a1ad8052c7c702273b643766.js'>