Animal Trainer 01 - 02 - 03 - 04 - 05

  • Category XXX
  • Type Video
  • Language English
  • Total size 5.8 GB
  • Uploaded By iCMAL
  • Downloads 458
  • Last checked 2 months ago
  • Date uploaded 2 months ago
  • Seeders 7
  • Leechers 34

Infohash : 9AE0B01A7DA81B63A3A530B4D5D4E3F44B19E3B7

Animal Trainer #01












Animal Trainer #02












Animal Trainer #03














Animal Trainer #04












Animal Trainer #05














Quote:


General
Complete name : C:\Users\Administrator\Downloads\Animal Trainer 01 - 02 - 03 - 04 - 05\Animal Trainer #01\Animal Trainer #01, Scene #01.mp4
Format : MPEG-4
Format profile : Base Media
Codec ID : isom (isom/iso2/avc1/mp41)
File size : 421 MiB
Duration : 46 min 33 s
Overall bit rate mode : Variable
Overall bit rate : 1 265 kb/s
Encoded date : UTC 1970-01-01 00:00:00
Tagged date : UTC 1970-01-01 00:00:00

Video
ID : 1
Format : AVC
Format/Info : Advanced Video Codec
Format profile : [email protected]
Format settings, CABAC : Yes
Format settings, ReFrames : 1 frame
Format settings, GOP : M=1, N=12
Codec ID : avc1
Codec ID/Info : Advanced Video Coding
Duration : 46 min 33 s
Bit rate : 1 220 kb/s
Width : 720 pixels
Height : 480 pixels
Display aspect ratio : 3:2
Frame rate mode : Constant
Frame rate : 29.970 (29970/1000) FPS
Standard : NTSC
Color space : YUV
Chroma subsampling : 4:2:0
Bit depth : 8 bits
Scan type : Progressive
Bits/(Pixel*Frame) : 0.118
Stream size : 406 MiB (96%)
Encoded date : UTC 1970-01-01 00:00:00
Tagged date : UTC 1970-01-01 00:00:00

Audio
ID : 2
Format : AAC
Format/Info : Advanced Audio Codec
Format profile : LC
Codec ID : 40
Duration : 46 min 33 s
Bit rate mode : Variable
Bit rate : 41.3 kb/s
Channel(s) : 2 channels
Channel(s)_Original : 1 channel
Channel positions : Front: C
Sampling rate : 24.0 kHz
Frame rate : 23.438 FPS (1024 spf)
Compression mode : Lossy
Stream size : 13.8 MiB (3%)
Encoded date : UTC 1970-01-01 00:00:00
Tagged date : UTC 1970-01-01 00:00:00




Files:

Animal Trainer 01 - 02 - 03 - 04 - 05 Animal Trainer #01
  • Animal Trainer #01, Scene #03.mp4 (525.3 MB)
  • Animal Trainer #01, Scene #01.mp4 (421.2 MB)
  • Animal Trainer #01, Scene #02.mp4 (367.2 MB)
  • back.jpg (122.8 KB)
  • front.jpg (116.0 KB)
Animal Trainer #02
  • Animal Trainer #02, Scene #03.mp4 (506.5 MB)
  • Animal Trainer #02, Scene #01.mp4 (439.8 MB)
  • Animal Trainer #02, Scene #02.mp4 (243.1 MB)
  • back.jpg (132.4 KB)
  • front.jpg (131.7 KB)
Animal Trainer #03
  • Animal Trainer #03, Scene #01.mp4 (374.9 MB)
  • Animal Trainer #03, Scene #02.mp4 (366.2 MB)
  • Animal Trainer #03, Scene #03.mp4 (250.0 MB)
  • Animal Trainer #03, Scene #04.mp4 (222.0 MB)
  • back.jpg (131.4 KB)
  • front.jpg (128.8 KB)
Animal Trainer #04
  • Animal Trainer #04, Scene #03.mp4 (467.6 MB)
  • Animal Trainer #04, Scene #01.mp4 (371.8 MB)
  • Animal Trainer #04, Scene #02.mp4 (257.8 MB)
  • front.jpg (141.9 KB)
  • back.jpg (137.5 KB)
Animal Trainer #05
  • Animal Trainer #05, Scene #01.mp4 (470.6 MB)
  • Animal Trainer #05, Scene #03.mp4 (413.0 MB)
  • Animal Trainer #05, Scene #02.mp4 (240.6 MB)
  • back.jpg (286.4 KB)
  • front.jpg (0.5 KB)

There are currently no comments. Feel free to leave one :)

Code:

  • UDP://TRACKER.LEECHERS-PARADISE.ORG:6969/ANNOUNCE
/b9/11/dd/b911dd24346fb11d7de6ffc178a125d6.js'>