Men.In.Black.International.2019.HQ.HC-TC.XviD.B4ND1T69

  • Category Movies
  • Type Divx/Xvid
  • Language English
  • Total size 1.1 GB
  • Uploaded By B4ND1T69
  • Downloads 26178
  • Last checked 4 months ago
  • Date uploaded 4 months ago
  • Seeders 792
  • Leechers 393

Infohash : 6F728C40D7B23FA0E1DB4760F8EA175E254F8F39

Men.In.Black.International.2019.HQ.HC-TC.XviD.B4ND1T69



Director: F. Gary Gray
Writers: Matt Holloway, Art Marcum
Stars: Chris Hemsworth, Tessa Thompson, Kumail Nanjiani

Plot/Story:
The Men in Black have always protected the Earth from the scum of the universe. In this new adventure, they tackle their biggest threat to date: a mole in the Men in Black organization.

Notes:
Clean print, NO ads, logos, floaty crap, just the movie...Enjoy.

General
Complete name : Men.In.Black.International.2019.HQ.HC-TC.XviD.B4ND1T69.avi
Format : AVI
Format/Info : Audio Video Interleave
File size : 1.07 GiB
Duration : 1 h 44 min
Overall bit rate : 1 471 kb/s
Samples : Yes...3 included

Video
ID : 0
Format : MPEG-4 Visual
Format profile : Advanced [email protected]
Format settings, BVOP : 2
Format settings, QPel : No
Format settings, GMC : No warppoints
Format settings, Matrix : Default (H.263)
Codec ID : XVID
Codec ID/Hint : XviD
Duration : 1 h 44 min
Bit rate : 1 330 kb/s
Width : 720 pixels
Height : 368 pixels
Display aspect ratio : 1.957
Frame rate : 24.000 FPS
Color space : YUV
Chroma subsampling : 4:2:0
Bit depth : 8 bits
Scan type : Progressive
Compression mode : Lossy
Bits/(Pixel*Frame) : 0.209
Stream size : 991 MiB (90%)
Writing library : XviD 64

Audio
ID : 1
Format : MPEG Audio
Format version : Version 1
Format profile : Layer 3
Codec ID : 55
Codec ID/Hint : MP3
Duration : 1 h 44 min
Bit rate mode : Constant
Bit rate : 128 kb/s
Channel(s) : 2 channels
Sampling rate : 48.0 kHz
Compression mode : Lossy
Stream size : 95.4 MiB (9%)
Alignment : Aligned on interleaves
Interleave, duration : 24 ms (0.58 video frame)

Screenshots:

https://i.imgur.com/Du6PuVg.png
https://i.imgur.com/HiqHGSK.png
https://i.imgur.com/ehnHlOd.png
https://i.imgur.com/UiJ8CIq.png
https://i.imgur.com/F6nWARr.png
https://i.imgur.com/LDgkrxo.png
https://i.imgur.com/ipHy3pA.png
https://i.imgur.com/kY5DTxH.png
https://i.imgur.com/6yKddvX.png










Please Seed For As Long As Possible
Or At Least 1:1 Ratio...Thanks
Enjoy Peeps

Files:

Men.In.Black.International.2019.HQ.HC-TC.XviD.B4ND1T69
  • 1337x text file.txt (0.1 KB)
  • Downloaded from katcr.co.txt (0.1 KB)
  • Sample.1.avi (11.9 MB)
  • Sample.3.avi (14.4 MB)
  • Sample.2.avi (29.6 MB)
  • Men.In.Black.International.2019.HQ.HC-TC.XviD.B4ND1T69.avi (1.1 GB)

Comments

Code:

  • udp://tracker.coppersurfer.tk:6969/announce
  • udp://tracker.pirateparty.gr:6969/announce
  • udp://tracker.opentrackr.org:1337/announce
  • udp://tracker.internetwarriors.net:1337/announce
  • udp://tracker.tiny-vps.com:6969/announce
  • udp://open.demonii.si:1337/announce
  • udp://tracker.torrent.eu.org:451/announce
  • udp://tracker.leechers-paradise.org:6969/announce
  • udp://explodie.org:6969/announce
/08/e7/ff/08e7ffd6a1ad8052c7c702273b643766.js'>