Belinda Carlisle - Wilder Shores (2017) Flac

  • Category Music
  • Type Lossless
  • Language English
  • Total size 316.0 MB
  • Uploaded By was95was
  • Downloads 182
  • Last checked 1 month ago
  • Date uploaded 1 month ago
  • Seeders 12
  • Leechers 2

Infohash : 4AA764905CFA1FB1D5F64124D4DB006DEA0C9288



Quality-Lossless
Release-2017
Duration-00:42:27
File Size-331.4 MB
Genre-Pop
Cover Size-1400px

----------------------------------------------------------------------------------------------
Analyzed: Wilder Shores / Artist: Carlisle Belinda
----------------------------------------------------------------------------------------------
DR Peak RMS Duration Title [codec]
----------------------------------------------------------------------------------------------
DR8 -0.50 dB -12.12 dB 7:19 01 - Adi Shakti [flac]
DR8 -0.00 dB -12.57 dB 6:30 02 - Ek Ong Kar Sat Gur Prasad [flac]
DR7 -1.40 dB -10.64 dB 4:29 03 - Light Of My Soul [flac]
DR8 -0.50 dB -11.93 dB 4:50 04 - Rakhe Rakhan Har [flac]
DR8 -0.50 dB -11.38 dB 5:58 05 - Har Gobinday [flac]
DR8 -0.50 dB -10.85 dB 4:44 06 - Humee Hum Brahm Hum [flac]
DR7 -0.50 dB -11.58 dB 5:04 07 - Aad Guray Nameh [flac]
DR9 -0.50 dB -13.89 dB 2:29 08 - Long Time Sun [flac]
DR8 -1.50 dB -13.19 dB 4:00 09 - Heaven Is a Place On Earth (2017 Acoustic Version) [flac]
----------------------------------------------------------------------------------------------
Number of files: 9
Official DR value: DR8

Sampling rate: 44100 Hz
Average bitrate: 960kbs
Bits per sample: 16 bit

Files:

Belinda Carlisle - Wilder Shores (2017) Flac
  • 01 - Adi Shakti.flac (52.2 MB)
  • 02 - Ek Ong Kar Sat Gur Prasad.flac (45.6 MB)
  • 03 - Light Of My Soul.flac (32.1 MB)
  • 04 - Rakhe Rakhan Har.flac (34.0 MB)
  • 05 - Har Gobinday.flac (42.0 MB)
  • 06 - Humee Hum Brahm Hum.flac (34.4 MB)
  • 07 - Aad Guray Nameh.flac (33.8 MB)
  • 08 - Long Time Sun.flac (16.0 MB)
  • 09 - Heaven Is a Place On Earth (2017 Acoustic Version).flac (25.0 MB)
  • [TGx]Downloaded from torrentgalaxy.org .txt (0.6 KB)
  • cover.jpg (911.8 KB)
  • dr14.txt (1.3 KB)
  • Torrent Downloaded from Glodls.to.txt (0.2 KB)
  • Torrent downloaded from limetorrents.cc.txt (0.1 KB)
  • Torrent Downloaded from worldwidetorrents.to (0.1 KB)

There are currently no comments. Feel free to leave one :)

Code:

  • udp://tracker.piratepublic.com:1337/announce
  • udp://tracker.pirateparty.gr:6969/announce
  • udp://tracker.coppersurfer.tk:6969/announce
  • udp://tracker.leechers-paradise.org:6969/announce
  • udp://9.rarbg.com:2710/announce
  • http://p4p.arenabg.com:1337/announce
  • http://explodie.org:6969/announce
  • udp://tracker.opentrackr.org:1337/announce
  • udp://exodus.desync.com:6969/announce
  • udp://tracker.leechers-paradise.org:6969/announce
  • udp://tracker.zer0day.to:1337/announce
  • udp://open.demonii.si:1337/announce
  • udp://exodus.desync.com:6969/announce
  • udp://tracker.iamhansen.xyz:2000/announce
/08/e7/ff/08e7ffd6a1ad8052c7c702273b643766.js'>