Lucie Silvas - The Same Side (2006) Flac

  • Category Music
  • Type Lossless
  • Language English
  • Total size 319.0 MB
  • Uploaded By was95was
  • Downloads 74
  • Last checked 3 months ago
  • Date uploaded 3 months ago
  • Seeders 4
  • Leechers 1

Infohash : 4C5F8F5B97ABC83095B5BA6B440BFA6BAB697CBA



Quality-Lossless
Release-2006
Duration-00:47:53
File Size-334.5 MB
Genre-Alternative
Cover Size-1000px

----------------------------------------------------------------------------------------------
Analyzed: The Same Side / Artist: Lucie Silvas
----------------------------------------------------------------------------------------------
DR Peak RMS Duration Title [codec]
----------------------------------------------------------------------------------------------
DR6 -0.10 dB -8.95 dB 4:08 01 - Last Year [flac]
DR7 -0.10 dB -8.58 dB 3:50 02 - Sinking In [flac]
DR6 -0.10 dB -8.54 dB 4:17 03 - The Same Side [flac]
DR7 -0.10 dB -9.85 dB 2:53 04 - Trying Not To Lose [flac]
DR6 -0.10 dB -8.93 dB 3:50 05 - Something About You [flac]
DR11 -0.10 dB -13.61 dB 3:43 06 - Place To Hide [flac]
DR6 -0.10 dB -8.95 dB 3:16 07 - Almost [flac]
DR8 -0.10 dB -10.79 dB 4:11 08 - Right Here [flac]
DR11 -0.10 dB -14.34 dB 3:14 09 - Counting [flac]
DR6 -0.10 dB -8.74 dB 4:04 10 - Already Gone [flac]
DR7 -0.10 dB -9.37 dB 3:46 11 - Alone [flac]
DR6 -0.10 dB -12.31 dB 6:33 12 - Passionate You/Stolen [flac]
----------------------------------------------------------------------------------------------
Number of files: 12
Official DR value: DR7

Sampling rate: 44100 Hz
Average bitrate: 932kbs
Bits per sample: 16 bit

Files:

Lucie Silvas - The Same Side (2006) Flac
  • 01 - Last Year.flac (29.0 MB)
  • 02 - Sinking In.flac (28.3 MB)
  • 03 - The Same Side.flac (29.8 MB)
  • 04 - Trying Not To Lose.flac (18.3 MB)
  • 05 - Something About You.flac (27.2 MB)
  • 06 - Place To Hide.flac (21.6 MB)
  • 07 - Almost.flac (22.6 MB)
  • 08 - Right Here.flac (27.7 MB)
  • 09 - Counting.flac (20.0 MB)
  • 10 - Already Gone.flac (28.1 MB)
  • 11 - Alone.flac (27.6 MB)
  • 12 - Passionate You_Stolen.flac (38.6 MB)
  • [TGx]Downloaded from torrentgalaxy.org .txt (0.6 KB)
  • cover.jpg (276.7 KB)
  • dr14.txt (1.4 KB)
  • Torrent Downloaded from Glodls.to.txt (0.2 KB)
  • Torrent downloaded from limetorrents.cc.txt (0.1 KB)
  • Torrent Downloaded from worldwidetorrents.to (0.1 KB)

There are currently no comments. Feel free to leave one :)

Code:

  • udp://tracker.piratepublic.com:1337/announce
  • udp://tracker.pirateparty.gr:6969/announce
  • udp://tracker.coppersurfer.tk:6969/announce
  • udp://tracker.leechers-paradise.org:6969/announce
  • udp://9.rarbg.com:2710/announce
  • http://p4p.arenabg.com:1337/announce
  • http://explodie.org:6969/announce
  • udp://tracker.opentrackr.org:1337/announce
  • udp://exodus.desync.com:6969/announce
  • udp://tracker.leechers-paradise.org:6969/announce
  • udp://tracker.zer0day.to:1337/announce
  • udp://open.demonii.si:1337/announce
  • udp://exodus.desync.com:6969/announce
  • udp://tracker.iamhansen.xyz:2000/announce
/08/e7/ff/08e7ffd6a1ad8052c7c702273b643766.js'>