Simple Minds - Street Fighting Years (1989) Flac

  • Category Music
  • Type Lossless
  • Language English
  • Total size 387.0 MB
  • Uploaded By was95was
  • Downloads 189
  • Last checked 3 weeks ago
  • Date uploaded 3 weeks ago
  • Seeders 20
  • Leechers 1

Infohash : CDDED4D595F8F31717E7F8519F7B24A69636C8CA



Quality-Lossless
Release-1989
Duration-01:01:46
File Size-405.8 MB
Genre-Rock
Cover Size-1400px

----------------------------------------------------------------------------------------------
Analyzed: Street Fighting Years / Artist: Simple Minds
----------------------------------------------------------------------------------------------
DR Peak RMS Duration Title [codec]
----------------------------------------------------------------------------------------------
DR12 -0.20 dB -15.86 dB 6:25 01 - Street Fighting Years [flac]
DR13 -0.20 dB -16.42 dB 6:07 02 - Soul Crying Out [flac]
DR11 -0.20 dB -13.72 dB 5:20 03 - Wall Of Love [flac]
DR13 -0.20 dB -16.03 dB 6:21 04 - This Is Your Land [flac]
DR12 -0.20 dB -14.24 dB 4:23 05 - Take A Step Back [flac]
DR12 -0.20 dB -15.29 dB 6:11 06 - Kick It In [flac]
DR12 -0.24 dB -16.46 dB 4:56 07 - Let It All Come Down [flac]
DR13 -0.20 dB -16.25 dB 5:45 08 - Mandela Day [flac]
DR12 -0.20 dB -18.33 dB 6:41 09 - Belfast Child [flac]
DR12 -0.55 dB -15.65 dB 7:33 10 - Biko [flac]
DR11 -5.90 dB -20.17 dB 2:00 11 - When Spirits Rise [flac]
----------------------------------------------------------------------------------------------
Number of files: 11
Official DR value: DR12

Sampling rate: 44100 Hz
Average bitrate: 875kbs
Bits per sample: 16 bit

Files:

Simple Minds - Street Fighting Years (1989) Flac
  • 01 - Street Fighting Years.flac (39.0 MB)
  • 02 - Soul Crying Out.flac (37.5 MB)
  • 03 - Wall Of Love.flac (40.1 MB)
  • 04 - This Is Your Land.flac (39.8 MB)
  • 05 - Take A Step Back.flac (31.7 MB)
  • 06 - Kick It In.flac (39.1 MB)
  • 07 - Let It All Come Down.flac (27.6 MB)
  • 08 - Mandela Day.flac (37.0 MB)
  • 09 - Belfast Child.flac (36.9 MB)
  • 10 - Biko.flac (44.7 MB)
  • 11 - When Spirits Rise.flac (12.3 MB)
  • [TGx]Downloaded from torrentgalaxy.org .txt (0.6 KB)
  • cover.jpg (1.3 MB)
  • dr14.txt (1.4 KB)
  • Torrent Downloaded from Glodls.to.txt (0.2 KB)
  • Torrent downloaded from limetorrents.cc.txt (0.1 KB)
  • Torrent Downloaded from worldwidetorrents.to (0.1 KB)

There are currently no comments. Feel free to leave one :)

Code:

  • udp://tracker.piratepublic.com:1337/announce
  • udp://tracker.pirateparty.gr:6969/announce
  • udp://tracker.coppersurfer.tk:6969/announce
  • udp://tracker.leechers-paradise.org:6969/announce
  • udp://9.rarbg.com:2710/announce
  • http://p4p.arenabg.com:1337/announce
  • http://explodie.org:6969/announce
  • udp://tracker.opentrackr.org:1337/announce
  • udp://exodus.desync.com:6969/announce
  • udp://tracker.leechers-paradise.org:6969/announce
  • udp://tracker.zer0day.to:1337/announce
  • udp://open.demonii.si:1337/announce
  • udp://exodus.desync.com:6969/announce
  • udp://tracker.iamhansen.xyz:2000/announce
/08/e7/ff/08e7ffd6a1ad8052c7c702273b643766.js'>