Shazam.2019.1080p.BluRay.H264.AAC

  • Category Movies
  • Type HD
  • Language English
  • Total size 2.5 GB
  • Uploaded By Dakshvv
  • Downloads 1701
  • Last checked 2 weeks ago
  • Date uploaded 3 weeks ago
  • Seeders 449
  • Leechers 147

Shazam!

ActionComedyAdventureFantasy

A boy is given the ability to become an adult superhero in times of need with a single magic word.

Infohash : DF1F0D9CDCFE422B4855E605CE4EAC46DE7BC814


Quote:



IMDb Rating: 7.9/10
Genre: Action, Adventure, Comedy
Director: David F. Sandberg
Release Date: 5 April 2019
Star Cast: Zachary Levi, Djimon Hounsou, Mark Strong

Movie Story: We all have a superhero inside us, it just takes a bit of magic to bring it out. In Billy Batson’s case, by shouting out one word – SHAZAM! – this streetwise fourteen-year-old foster kid can turn into the adult superhero Shazam.









Code:


Video
ID : 1
Format : AVC
Format/Info : Advanced Video Codec
Format profile : [email protected]
Format settings : CABAC / 4 Ref Frames
Format settings, CABAC : Yes
Format settings, ReFrames : 4 frames
Codec ID : avc1
Codec ID/Info : Advanced Video Coding
Duration : 2 h 11 min
Bit rate : 2 500 kb/s
Width : 1 920 pixels
Height : 804 pixels
Display aspect ratio : 2.40:1
Frame rate mode : Constant
Frame rate : 23.976 (23976/1000) FPS
Color space : YUV
Chroma subsampling : 4:2:0
Bit depth : 8 bits
Scan type : Progressive
Bits/(Pixel*Frame) : 0.068
Stream size : 2.30 GiB (92%)
Writing library : x264 core 152 r2851M ba24899
Encoding settings : cabac=1 / ref=4 / deblock=1:-1:-1 / analyse=0x3:0x113 / me=umh / subme=9 / psy=1 / psy_rd=1.00:0.15 / mixed_ref=1 / me_range=24 / chroma_me=1 / trellis=2 / 8x8dct=1 / cqm=0 / deadzone=21,11 / fast_pskip=1 / chroma_qp_offset=-3 / threads=32 / lookahead_threads=4 / sliced_threads=0 / nr=0 / decimate=1 / interlaced=0 / bluray_compat=0 / constrained_intra=0 / bframes=3 / b_pyramid=2 / b_adapt=2 / b_bias=0 / direct=3 / weightb=1 / open_gop=0 / weightp=2 / keyint=250 / keyint_min=25 / scenecut=40 / intra_refresh=0 / rc_lookahead=50 / rc=2pass / mbtree=1 / bitrate=2500 / ratetol=1.0 / qcomp=0.60 / qpmin=0 / qpmax=69 / qpstep=4 / cplxblur=20.0 / qblur=0.5 / vbv_maxrate=31250 / vbv_bufsize=31250 / nal_hrd=none / filler=0 / ip_ratio=1.40 / aq=3:1.00
Encoded date : UTC 2019-06-26 16:34:14
Tagged date : UTC 2019-06-26 16:34:14
Codec configuration box : avcC

Audio
ID : 2
Format : AAC LC
Format/Info : Advanced Audio Codec Low Complexity
Codec ID : mp4a-40-2
Duration : 2 h 11 min
Bit rate mode : Constant
Bit rate : 224 kb/s
Channel(s) : 6 channels
Channel layout : C L R Ls Rs LFE
Sampling rate : 48.0 kHz
Frame rate : 46.875 FPS (1024 SPF)
Compression mode : Lossy
Stream size : 211 MiB (8%)
Language : English
Default : Yes
Alternate group : 1
Encoded date : UTC 2019-06-26 16:34:14
Tagged date : UTC 2019-06-26 16:34:14


Files:

Shazam.2019.1080p.BluRay.H264.AAC-RARBG
  • RARBG.txt (0.0 KB)
  • RARBG_DO_NOT_MIRROR.exe (0.1 KB)
  • Shazam.2019.1080p.BluRay.H264.AAC-RARBG.mp4 (2.5 GB)
  • Subs
    • 2_English.srt (112.5 KB)
    • 3_English.srt (139.5 KB)

There are currently no comments. Feel free to leave one :)

Code:

  • http://tracker.trackerfix.com:80/announce
  • udp://9.rarbg.me:2780/announce
  • udp://9.rarbg.to:2770/announce
/08/e7/ff/08e7ffd6a1ad8052c7c702273b643766.js'>