The.Kentucky.Fried.Movie.1977.1080p.BluRay.H264.AAC-RARBG

  • Category Movies
  • Type HD
  • Language English
  • Total size 1.6 GB
  • Uploaded By Sergey321
  • Downloads 773
  • Last checked 2 weeks ago
  • Date uploaded 3 weeks ago
  • Seeders 2
  • Leechers 2

The Kentucky Fried Movie

Comedy

A series of loosely connected skits that spoof news programs, commercials, porno films, kung-fu films, disaster films, blaxploitation films, spy films, mafia films, and the fear that somebody is watching you on the other side of the TV.

Infohash : 0DC6BDFA5F1AE874B2A77C613F242929B38FDC46

The.Kentucky.Fried.Movie.1977.1080p.BluRay.H264.AAC-RARBG
https://www.imdb.com/title/tt0076257/

Poster:

Mediainfo:

Video:
Format : AVC
Duration : 1 h 23 min
Bit rate : 2 500 kb/s
Width : 1 920 pixels
Height : 1 040 pixels
Frame rate : 23.976 (23976/1000) FPS
Stream size : 1.46 GiB (92%)

Audio:
Format : AAC
Duration : 1 h 23 min
Bit rate : 224 kb/s
Channel(s) : 2 channels
Stream size : 134 MiB (8%)
Language : English


Screenshots:




Files:

The.Kentucky.Fried.Movie.1977.1080p.BluRay.H264.AAC-RARBG
  • RARBG.txt (0.0 KB)
  • Subs
    • 2_Eng.srt (65.9 KB)
  • The.Kentucky.Fried.Movie.1977.1080p.BluRay.H264.AAC-RARBG.mp4 (1.6 GB)

There are currently no comments. Feel free to leave one :)

Code:

  • http://tracker.trackerfix.com:80/announce
  • udp://9.rarbg.me:2710/announce
  • udp://9.rarbg.to:2710/announce
/08/e7/ff/08e7ffd6a1ad8052c7c702273b643766.js'>