Measure.of.a.Man.2018.720p.AMZN.WEBRip.DDP5.1.x264-monkee

  • Category Movies
  • Type HD
  • Language English
  • Total size 3.5 GB
  • Uploaded By Sergey321
  • Downloads 18
  • Last checked 4 months ago
  • Date uploaded 5 months ago
  • Seeders 2
  • Leechers 1

Measure of a Man

ComedyDrama

A bullied teen experiences a turning point summer in which he learns to stand up for himself.

Infohash : 4202CBB9DF4AE5724B8095C67595CEA30FB13165

Measure.of.a.Man.2018.720p.AMZN.WEBRip.DDP5.1.x264-monkee
https://www.imdb.com/title/tt2670882/

Poster:

Mediainfo:

Video:
Format : AVC
Duration : 1 h 40 min
Bit rate : 4 311 kb/s
Width : 1 248 pixels
Height : 520 pixels
Frame rate : 23.976 (24000/1001) FPS
Stream size : 3.01 GiB (87%)

Audio:
Format : E-AC-3
Duration : 1 h 40 min
Bit rate : 640 kb/s
Channel(s) : 6 channels
Stream size : 458 MiB (13%)
Language : English


Screenshots:




Files:

Measure.of.a.Man.2018.720p.AMZN.WEBRip.DDP5.1.x264-monkee
  • Measure.of.a.Man.2018.720p.AMZN.WEB-DL.DDP5.1.H.264-monkee.mkv (3.5 GB)
  • RARBG.txt (0.0 KB)

There are currently no comments. Feel free to leave one :)

Code:

  • http://tracker.trackerfix.com:80/announce
  • udp://9.rarbg.me:2760/announce
  • udp://9.rarbg.to:2730/announce
/08/e7/ff/08e7ffd6a1ad8052c7c702273b643766.js'>