Giada.in.Italy.S03E04.Sweet.Capri.WEBRip.x264-CAFFEiNE

  • Category TV
  • Type SD
  • Language English
  • Total size 220.2 MB
  • Uploaded By Sergey321
  • Downloads 13
  • Last checked 4 months ago
  • Date uploaded 4 months ago
  • Seeders 2
  • Leechers 0

Infohash : C36CAC607B7EC2EC8E25C7B4676B3C2968141722

Giada.in.Italy.S03E04.Sweet.Capri.WEBRip.x264-CAFFEiNE
https://www.imdb.com/title/tt4915896/


Mediainfo:

Video:
Format : AVC
Duration : 21 min 23 s
Bit rate : 1 310 kb/s
Width : 720 pixels
Height : 404 pixels
Frame rate : 23.976 (24000/1001) FPS
Stream size : 200 MiB (91%)

Audio:
Format : AAC LC SBR
Duration : 21 min 23 s
Bit rate : 127 kb/s
Channel(s) : 2 channels
Stream size : 19.4 MiB (9%)
Language : English


Screenshots:


Files:

Giada.in.Italy.S03E04.Sweet.Capri.WEBRip.x264-CAFFEiNE[rarbg]
  • Giada.in.Italy.S03E04.Sweet.Capri.WEBRip.x264-CAFFEiNE.mkv (220.2 MB)
  • RARBG.txt (0.0 KB)
  • RARBG_DO_NOT_MIRROR.exe (0.1 KB)
  • giada.in.italy.s03e04.sweet.capri.webrip.x264-caffeine.nfo (0.5 KB)

There are currently no comments. Feel free to leave one :)

Code:

  • http://tracker.trackerfix.com:80/announce
  • udp://9.rarbg.me:2790/announce
  • udp://9.rarbg.to:2740/announce
  • http://113.161.173.13:80/announce
/08/e7/ff/08e7ffd6a1ad8052c7c702273b643766.js'>