Tarzan (1999) 1080p BDRip x265 AAC 5.0 Goki [SEV]

  • Category Movies
  • Type HEVC/x265
  • Language English
  • Total size 4.9 GB
  • Uploaded By Goki
  • Downloads 107
  • Last checked 1 month ago
  • Date uploaded 1 month ago
  • Seeders 9
  • Leechers 2

Tarzan

AdventureAnimationDramaFamily

Tarzan was a small orphan who was raised by an ape named Kala since he was a child. He believed that this was his family, but on an expedition Jane Porter is rescued by Tarzan. He then finds out that he's human. Now Tarzan must make the decision as to which family he should belong to...

Infohash : FAF6D5AC70D52848BB2B4256BE29FAF22B7404AC



Screenshots







Media Information



Unique ID : 121143222773274881904520248820596531354 (0x5B2356060D9568AC03DD646E5A38E09A)
Complete name : Tarzan (1999) 1080p BDRip x265 AAC 5.0 Goki [SEV].mkv
Format : Matroska
Format version : Version 4
File size : 4.92 GiB
Duration : 1 h 28 min
Overall bit rate : 7 958 kb/s
Movie name : Tarzan (1999) 1080p BDRip x265 AAC 5.0 Goki [SEV]
Encoded date : UTC 2019-07-17 04:01:22
Writing application : mkvmerge v28.2.0 ('The Awakening') 64-bit
Writing library : libebml v1.3.6 + libmatroska v1.4.9

Video
ID : 1
Format : HEVC
Format/Info : High Efficiency Video Coding
Format profile : Main [email protected]@Main
Codec ID : V_MPEGH/ISO/HEVC
Duration : 1 h 28 min
Bit rate : 6 378 kb/s
Width : 1 920 pixels
Height : 1 080 pixels
Display aspect ratio : 16:9
Frame rate mode : Constant
Frame rate : 23.976 (24000/1001) FPS
Color space : YUV
Chroma subsampling : 4:2:0
Bit depth : 10 bits
Bits/(Pixel*Frame) : 0.128
Stream size : 3.94 GiB (80%)
Writing library : x265 2.9+8-27d8424c799d:[Windows][MSVC 1915][64 bit] 10bit
Encoding settings : cpuid=1111039 / frame-threads=2 / numa-pools=4 / wpp / no-pmode / no-pme / no-psnr / no-ssim / log-level=2 / input-csp=1 / input-res=1920x1080 / interlace=0 / total-frames=0 / level-idc=0 / high-tier=1 / uhd-bd=0 / ref=4 / no-allow-non-conformance / no-repeat-headers / annexb / no-aud / no-hrd / info / hash=0 / no-temporal-layers / open-gop / min-keyint=23 / keyint=250 / gop-lookahead=0 / bframes=8 / b-adapt=2 / b-pyramid / bframe-bias=0 / rc-lookahead=100 / lookahead-slices=4 / scenecut=40 / radl=0 / no-intra-refresh / ctu=64 / min-cu-size=8 / no-rect / no-amp / max-tu-size=32 / tu-inter-depth=2 / tu-intra-depth=2 / limit-tu=4 / rdoq-level=2 / dynamic-rd=0.00 / no-ssim-rd / signhide / no-tskip / nr-intra=0 / nr-inter=0 / no-constrained-intra / no-strong-intra-smoothing / max-merge=3 / limit-refs=2 / limit-modes / me=3 / subme=5 / merange=57 / temporal-mvp / weightp / weightb / no-analyze-src-pics / deblock=0:0 / sao / no-sao-non-deblock / rd=6 / no-early-skip / rskip / no-fast-intra / no-tskip-fast / no-cu-lossless / b-intra / no-splitrd-skip / rdpenalty=0 / psy-rd=1.30 / psy-rdoq=2.00 / no-rd-refine / no-lossless / cbqpoffs=0 / crqpoffs=0 / rc=crf / crf=17.0 / qcomp=0.60 / qpstep=4 / stats-write=0 / stats-read=0 / ipratio=1.40 / pbratio=1.30 / aq-mode=2 / aq-strength=1.10 / cutree / zone-count=0 / no-strict-cbr / qg-size=32 / no-rc-grain / qpmax=69 / qpmin=0 / no-const-vbv / sar=1 / overscan=0 / videoformat=5 / range=0 / colorprim=2 / transfer=2 / colormatrix=2 / chromaloc=0 / display-window=0 / max-cll=0,0 / min-luma=0 / max-luma=1023 / log2-max-poc-lsb=8 / vui-timing-info / vui-hrd-info / slices=1 / no-opt-qp-pps / no-opt-ref-list-length-pps / no-multi-pass-opt-rps / scenecut-bias=0.05 / no-opt-cu-delta-qp / no-aq-motion / no-hdr / no-hdr-opt / no-dhdr10-opt / no-idr-recovery-sei / analysis-reuse-level=5 / scale-factor=0 / refine-intra=0 / refine-inter=0 / refine-mv=0 / no-limit-sao / ctu-info=0 / no-lowpass-dct / refine-mv-type=0 / copy-pic=1 / max-ausize-factor=1.0 / no-dynamic-refine / no-single-sei
Language : English
Default : Yes
Forced : No

Audio #1
ID : 2
Format : AAC LC
Format/Info : Advanced Audio Codec Low Complexity
Codec ID : A_AAC-2
Duration : 1 h 28 min
Bit rate : 448 kb/s
Channel(s) : 5 channels
Channel layout : C L R Ls Rs
Sampling rate : 48.0 kHz
Frame rate : 46.875 FPS (1024 SPF)
Compression mode : Lossy
Delay relative to video : 9 ms
Stream size : 284 MiB (6%)
Language : English
Default : Yes
Forced : No

Audio #2
ID : 3
Format : AC-3
Format/Info : Audio Coding 3
Commercial name : Dolby Digital
Codec ID : A_AC3
Duration : 1 h 28 min
Bit rate mode : Constant
Bit rate : 640 kb/s
Channel(s) : 2 channels
Channel layout : L R
Sampling rate : 48.0 kHz
Frame rate : 31.250 FPS (1536 SPF)
Bit depth : 16 bits
Compression mode : Lossy
Stream size : 405 MiB (8%)
Title : Commentary by producer Bonnie Arnold and co-directors Chris Buck and Kevin Lima / Dolby Digital Audio / 2.0 / 48 kHz / 640 kbps
Language : English
Service kind : Complete Main
Default : No
Forced : No

Text #1
ID : 4
Format : PGS
Codec ID : S_HDMV/PGS
Codec ID/Info : Picture based subtitle format used on BDs/HD-DVDs
Duration : 1 h 21 min
Bit rate : 46.0 kb/s
Count of elements : 1790
Stream size : 26.7 MiB (1%)
Language : English
Default : No
Forced : No

Text #2
ID : 5
Format : PGS
Codec ID : S_HDMV/PGS
Codec ID/Info : Picture based subtitle format used on BDs/HD-DVDs
Duration : 1 h 28 min
Bit rate : 136 kb/s
Count of elements : 3724
Stream size : 86.0 MiB (2%)
Language : English
Default : No
Forced : No

Text #3
ID : 6
Format : PGS
Codec ID : S_HDMV/PGS
Codec ID/Info : Picture based subtitle format used on BDs/HD-DVDs
Duration : 1 h 21 min
Bit rate : 42.8 kb/s
Count of elements : 1442
Stream size : 24.9 MiB (0%)
Language : Indonesian
Default : No
Forced : No

Text #4
ID : 7
Format : PGS
Codec ID : S_HDMV/PGS
Codec ID/Info : Picture based subtitle format used on BDs/HD-DVDs
Duration : 1 h 21 min
Bit rate : 48.4 kb/s
Count of elements : 1538
Stream size : 28.2 MiB (1%)
Language : Malay
Default : No
Forced : No

Text #5
ID : 8
Format : PGS
Codec ID : S_HDMV/PGS
Codec ID/Info : Picture based subtitle format used on BDs/HD-DVDs
Duration : 1 h 21 min
Bit rate : 32.7 kb/s
Count of elements : 1636
Stream size : 19.2 MiB (0%)
Language : Korean
Default : No
Forced : No

Text #6
ID : 9
Format : PGS
Codec ID : S_HDMV/PGS
Codec ID/Info : Picture based subtitle format used on BDs/HD-DVDs
Duration : 1 h 27 min
Bit rate : 29.8 kb/s
Count of elements : 1748
Stream size : 18.7 MiB (0%)
Language : Thai
Default : No
Forced : No

Text #7
ID : 10
Format : PGS
Codec ID : S_HDMV/PGS
Codec ID/Info : Picture based subtitle format used on BDs/HD-DVDs
Duration : 1 h 28 min
Bit rate : 84.2 kb/s
Count of elements : 2948
Stream size : 53.2 MiB (1%)
Language : Korean
Default : No
Forced : No

Text #8
ID : 11
Format : PGS
Codec ID : S_HDMV/PGS
Codec ID/Info : Picture based subtitle format used on BDs/HD-DVDs
Duration : 1 h 28 min
Bit rate : 94.0 kb/s
Count of elements : 3724
Stream size : 59.4 MiB (1%)
Language : Thai
Default : No
Forced : No

Menu
00:00:00.000 : :Main Title/"Two Worlds"
00:03:22.168 : :Kala's Discovery
00:06:08.703 : :A Narrow Escape
00:08:17.504 : :Adopted
00:11:01.539 : :"You'll Be in My Heart"
00:12:38.672 : :Young Tarzan
00:14:20.006 : :Pest Control
00:16:45.840 : :Baby Tantor
00:18:01.840 : :Piranha!
00:18:59.007 : :Outcast
00:20:39.508 : :Hand to Hand
00:22:39.675 : :"Son of Man!"
00:25:26.709 : :Monkeying Around
00:26:20.376 : :Sabor Attacks
00:30:40.210 : :Explores
00:33:48.377 : :The Baby Baboon
00:34:49.711 : :Tarzan to the Rescue
00:37:27.012 : :Treetop Introductions
00:41:32.846 : :"Trashin' the Camp"
00:45:37.013 : :Jane's Rant
00:46:46.513 : :Tarzan Confronts Kerchak
00:48:31.947 : :Tarzan Drops In
00:50:12.781 : :"Strangers Like Me"
00:54:06.648 : :The Boat Arrives
00:56:49.948 : :Distracting Kerchak
00:57:51.116 : :Meeting Tarzan's Family
01:01:27.783 : :Tarzan Defies Kerchak
01:03:20.983 : :The Truth
01:07:11.317 : :Clayton's Trap
01:09:16.951 : :"We Got a Boat to Catch"
01:11:39.151 : :Ambush
01:14:52.318 : :A Fight to the Finish
01:16:34.285 : :"My Son"
01:19:04.652 : :Goodbyes
01:21:26.986 : :Our Family
01:22:21.788 : :End Credits

Source Information



Unique ID : 99722028072034746262215021298153534078 (0x4B05C3955DB7EC3DB521DAE6F02DB27E)
Complete name : Tarzan.1999.1080p.BluRay.REMUX.AVC.DTS-HD.MA.5.0-EPSiLON.mkv
Format : Matroska
Format version : Version 4
File size : 20.4 GiB
Duration : 1 h 28 min
Overall bit rate mode : Variable
Overall bit rate : 33.0 Mb/s
Encoded date : UTC 2016-11-14 10:32:17
Writing application : mkvmerge v9.5.0 ('Quiet Fire') 64bit
Writing library : libebml v1.3.4 + libmatroska v1.4.5

Video
ID : 1
Format : AVC
Format/Info : Advanced Video Codec
Format profile : [email protected]
Format settings : CABAC / 4 Ref Frames
Format settings, CABAC : Yes
Format settings, RefFrames : 4 frames
Format settings, GOP : M=3, N=12
Codec ID : V_MPEG4/ISO/AVC
Duration : 1 h 28 min
Bit rate mode : Variable
Bit rate : 27.9 Mb/s
Maximum bit rate : 30.5 Mb/s
Width : 1 920 pixels
Height : 1 080 pixels
Display aspect ratio : 16:9
Frame rate mode : Constant
Frame rate : 23.976 (24000/1001) FPS
Color space : YUV
Chroma subsampling : 4:2:0
Bit depth : 8 bits
Scan type : Progressive
Bits/(Pixel*Frame) : 0.561
Stream size : 17.2 GiB (84%)
Title : MPEG-4 AVC Video / 27995 kbps / 1080p / 23.976 fps / 16:9 / High Profile 4.1
Language : English
Default : Yes
Forced : No

Audio #1
ID : 2
Format : DTS XLL
Format/Info : Digital Theater Systems
Commercial name : DTS-HD Master Audio
Codec ID : A_DTS
Duration : 1 h 28 min
Bit rate mode : Variable
Bit rate : 3 993 kb/s
Channel(s) : 5 channels
Channel layout : C L R Ls Rs
Sampling rate : 48.0 kHz
Frame rate : 93.750 FPS (512 SPF)
Bit depth : 24 bits
Compression mode : Lossless
Stream size : 2.47 GiB (12%)
Title : DTS-HD Master Audio / 5.0 / 48 kHz / 4000 kbps / 24-bit
Language : English
Default : Yes
Forced : No

Audio #2
ID : 3
Format : AC-3
Format/Info : Audio Coding 3
Commercial name : Dolby Digital
Codec ID : A_AC3
Duration : 1 h 28 min
Bit rate mode : Constant
Bit rate : 640 kb/s
Channel(s) : 2 channels
Channel layout : L R
Sampling rate : 48.0 kHz
Frame rate : 31.250 FPS (1536 SPF)
Bit depth : 16 bits
Compression mode : Lossy
Stream size : 405 MiB (2%)
Title : Commentary by producer Bonnie Arnold and co-directors Chris Buck and Kevin Lima / Dolby Digital Audio / 2.0 / 48 kHz / 640 kbps
Language : English
Service kind : Complete Main
Default : No
Forced : No

Text #1
ID : 4
Format : PGS
Codec ID : S_HDMV/PGS
Codec ID/Info : Picture based subtitle format used on BDs/HD-DVDs
Duration : 1 h 21 min
Bit rate : 46.0 kb/s
Count of elements : 1790
Stream size : 26.7 MiB (0%)
Language : English
Default : No
Forced : No

Text #2
ID : 5
Format : PGS
Codec ID : S_HDMV/PGS
Codec ID/Info : Picture based subtitle format used on BDs/HD-DVDs
Duration : 1 h 21 min
Bit rate : 42.8 kb/s
Count of elements : 1442
Stream size : 24.9 MiB (0%)
Language : Indonesian
Default : No
Forced : No

Text #3
ID : 6
Format : PGS
Codec ID : S_HDMV/PGS
Codec ID/Info : Picture based subtitle format used on BDs/HD-DVDs
Duration : 1 h 21 min
Bit rate : 48.4 kb/s
Count of elements : 1538
Stream size : 28.2 MiB (0%)
Language : Malay
Default : No
Forced : No

Text #4
ID : 7
Format : PGS
Codec ID : S_HDMV/PGS
Codec ID/Info : Picture based subtitle format used on BDs/HD-DVDs
Duration : 1 h 21 min
Bit rate : 32.7 kb/s
Count of elements : 1636
Stream size : 19.2 MiB (0%)
Language : Korean
Default : No
Forced : No

Text #5
ID : 8
Format : PGS
Codec ID : S_HDMV/PGS
Codec ID/Info : Picture based subtitle format used on BDs/HD-DVDs
Duration : 1 h 27 min
Bit rate : 29.8 kb/s
Count of elements : 1748
Stream size : 18.7 MiB (0%)
Language : Thai
Default : No
Forced : No

Text #6
ID : 9
Format : PGS
Codec ID : S_HDMV/PGS
Codec ID/Info : Picture based subtitle format used on BDs/HD-DVDs
Duration : 1 h 28 min
Bit rate : 136 kb/s
Count of elements : 3724
Stream size : 86.0 MiB (0%)
Title : Commentary by producer Bonnie Arnold and co-directors Chris Buck and Kevin Lima
Language : English
Default : No
Forced : No

Text #7
ID : 10
Format : PGS
Codec ID : S_HDMV/PGS
Codec ID/Info : Picture based subtitle format used on BDs/HD-DVDs
Duration : 1 h 28 min
Bit rate : 84.2 kb/s
Count of elements : 2948
Stream size : 53.2 MiB (0%)
Title : Commentary by producer Bonnie Arnold and co-directors Chris Buck and Kevin Lima
Language : Korean
Default : No
Forced : No

Text #8
ID : 11
Format : PGS
Codec ID : S_HDMV/PGS
Codec ID/Info : Picture based subtitle format used on BDs/HD-DVDs
Duration : 1 h 28 min
Bit rate : 94.0 kb/s
Count of elements : 3724
Stream size : 59.4 MiB (0%)
Title : Commentary by producer Bonnie Arnold and co-directors Chris Buck and Kevin Lima
Language : Thai
Default : No
Forced : No

Menu
00:00:00.000 : en:Main Title/"Two Worlds"
00:03:22.168 : en:Kala's Discovery
00:06:08.703 : en:A Narrow Escape
00:08:17.504 : en:Adopted
00:11:01.539 : en:"You'll Be in My Heart"
00:12:38.672 : en:Young Tarzan
00:14:20.006 : en:Pest Control
00:16:45.840 : en:Baby Tantor
00:18:01.840 : en:Piranha!
00:18:59.007 : en:Outcast
00:20:39.508 : en:Hand to Hand
00:22:39.675 : en:"Son of Man!"
00:25:26.709 : en:Monkeying Around
00:26:20.376 : en:Sabor Attacks
00:30:40.210 : en:Explores
00:33:48.377 : en:The Baby Baboon
00:34:49.711 : en:Tarzan to the Rescue
00:37:27.012 : en:Treetop Introductions
00:41:32.846 : en:"Trashin' the Camp"
00:45:37.013 : en:Jane's Rant
00:46:46.513 : en:Tarzan Confronts Kerchak
00:48:31.947 : en:Tarzan Drops In
00:50:12.781 : en:"Strangers Like Me"
00:54:06.648 : en:The Boat Arrives
00:56:49.948 : en:Distracting Kerchak
00:57:51.116 : en:Meeting Tarzan's Family
01:01:27.783 : en:Tarzan Defies Kerchak
01:03:20.983 : en:The Truth
01:07:11.317 : en:Clayton's Trap
01:09:16.951 : en:"We Got a Boat to Catch"
01:11:39.151 : en:Ambush
01:14:52.318 : en:A Fight to the Finish
01:16:34.285 : en:"My Son"
01:19:04.652 : en:Goodbyes
01:21:26.986 : en:Our Family
01:22:21.788 : en:End Credits

.........................................................................................................................................


We have no issue with individuals posting or re-uploading our torrents on a platform we aren't on. However, if this is something you'd like to do, please do so in a 'as-is' format. We ask that you do not create a new torrent, include all descriptions you see above including the SEV logo, tags, notes and screenshots. If you'd like to become a permanent poster on a website we don't post to, feel free to get in contact with a Sublime Encoded Video member.



We are recruiting/training new members for SEV & seedbox providers as well as people to help out with subtitles.
As you already know, we deliver quality, so you know the standard.
If you're interested, feel free to contact any of the team members.

Files:

Tarzan (1999) 1080p BDRip x265 AAC 5.0 Goki [SEV]
  • Tarzan (1999) 1080p BDRip x265 AAC 5.0 Goki [SEV].mkv (4.9 GB)
  • Tarzan (1999) 1080p BDRip x265 AAC 5.0 Goki [SEV].nfo (7.6 KB)
  • Tarzan (1999) 1080p BDRip x265 AAC 5.0 Goki [SEV]-banner.jpg (115.2 KB)
  • Tarzan (1999) 1080p BDRip x265 AAC 5.0 Goki [SEV]-clearart.png (637.8 KB)
  • Tarzan (1999) 1080p BDRip x265 AAC 5.0 Goki [SEV]-clearlogo.png (268.0 KB)
  • Tarzan (1999) 1080p BDRip x265 AAC 5.0 Goki [SEV]-disc.png (1.4 MB)
  • Tarzan (1999) 1080p BDRip x265 AAC 5.0 Goki [SEV]-fanart.jpg (981.1 KB)
  • Tarzan (1999) 1080p BDRip x265 AAC 5.0 Goki [SEV]-keyart.jpg (1.4 MB)
  • Tarzan (1999) 1080p BDRip x265 AAC 5.0 Goki [SEV]-logo.png (268.0 KB)
  • Tarzan (1999) 1080p BDRip x265 AAC 5.0 Goki [SEV]-poster.jpg (1.5 MB)
  • Tarzan (1999) 1080p BDRip x265 AAC 5.0 Goki [SEV]-thumb.jpg (572.5 KB)

Comments

Code:

  • udp://tracker.coppersurfer.tk:6969/announce
  • udp://tracker.opentrackr.org:1337/announce
  • udp://tracker.torrent.eu.org:451/announce
  • udp://tracker.internetwarriors.net:1337/announce
  • http://tracker.opentrackr.org:1337/announce
  • udp://denis.stalker.upeer.me:6969/announce
  • udp://tracker.coppersurfer.tk:6969
  • udp://tracker.internetwarriors.net:1337
  • udp://9.rarbg.me:2720/announce
  • udp://explodie.org:6969/announce
  • http://tracker3.itzmx.com:6961/announce
  • udp://tracker.cyberia.is:6969/announce
  • udp://thetracker.org/announce
  • udp://open.demonii.si:1337/announce
/08/e7/ff/08e7ffd6a1ad8052c7c702273b643766.js'>