The Jigsaw.2014.1080p.WEBRip.x264.AAC.HORiZON-ArtSubs

  • Category Movies
  • Type h.264/x264
  • Language English
  • Total size 69.9 MB
  • Uploaded By m1337e
  • Downloads 770
  • Last checked 4 months ago
  • Date uploaded 4 months ago
  • Seeders 17
  • Leechers 4

The Jigsaw

Horror

The purchase of a mystery Jigsaw Puzzle from a strange and unsettling vendor leads a man to an evening of frightening consequences.

Infohash : B91BD583A78C07130B95C7E621D358D6A54C753D

Release: The Jigsaw.2014.1080p.WEBRip.x264.AAC.HORiZON-ArtSubs



IMDB: https://www.imdb.com/title/tt3452230

Subtitle: None

Plot: The purchase of a mystery Jigsaw Puzzle from a strange and unsettling vendor leads a man to an evening of frightening consequences.


Complete name: The Jigsaw.2014.1080p.WEBRip.x264.AAC.HORiZON-ArtSubs
Format                      : MPEG-4
Format profile              : Base Media / Version 2
Codec ID                    : mp42 (mp42/mp41/isom/avc1)
File size                   : 665 MiB
Duration                    : 22 min 46 s
Overall bit rate mode       : Variable
Overall bit rate            : 4 084 kb/s
Encoded date                : UTC 2015-06-16 07:48:22
Tagged date                 : UTC 2015-06-16 07:48:22

Video
ID                          : 1
Format                      : AVC
Format/Info                 : Advanced Video Codec
Format profile              : [email protected]
Format settings             : CABAC / 4 Ref Frames
Format settings, CABAC      : Yes
Format settings, ReFrames   : 4 frames
Codec ID                    : avc1
Codec ID/Info               : Advanced Video Coding
Duration                    : 22 min 46 s
Bit rate                    : 3 825 kb/s
Width                       : 1 920 pixels
Height                      : 788 pixels
Display aspect ratio        : 2.40:1
Frame rate mode             : Constant
Frame rate                  : 23.976 (24000/1001) FPS
Color space                 : YUV
Chroma subsampling          : 4:2:0
Bit depth                   : 8 bits
Scan type                   : Progressive
Bits/(Pixel*Frame)          : 0.105
Stream size                 : 623 MiB (94%)
Writing library             : x264 core 146 r16 121396c
Encoding settings           : cabac=1 / ref=3 / deblock=1:0:0 / analyse=0x3:0x113 / me=hex / subme=7 / psy=1 / psy_rd=1.00:0.00 / mixed_ref=1 / me_range=16 / chroma_me=1 / trellis=1 / 8x8dct=1 / cqm=0 / deadzone=21,11 / fast_pskip=1 / chroma_qp_offset=-2 / threads=84 / lookahead_threads=6 / sliced_threads=0 / nr=0 / decimate=1 / interlaced=0 / bluray_compat=0 / stitchable=1 / constrained_intra=0 / bframes=3 / b_pyramid=2 / b_adapt=1 / b_bias=0 / direct=1 / weightb=1 / open_gop=0 / weightp=2 / keyint=infinite / keyint_min=23 / scenecut=40 / intra_refresh=0 / rc_lookahead=40 / rc=crf / mbtree=1 / crf=20.0 / qcomp=0.60 / qpmin=5 / qpmax=69 / qpstep=4 / vbv_maxrate=4950 / vbv_bufsize=13500 / crf_max=0.0 / nal_hrd=none / filler=0 / ip_ratio=1.40 / aq=1:1.00
Encoded date                : UTC 2015-06-16 07:48:22
Tagged date                 : UTC 2015-06-16 07:48:22
Color range                 : Limited
Color primaries             : BT.709
Transfer characteristics    : BT.709
Matrix coefficients         : BT.709

Audio
ID                          : 2
Format                      : AAC
Format/Info                 : Advanced Audio Codec
Format profile              : LC
Codec ID                    : mp4a-40-2
Duration                    : 22 min 46 s
Bit rate mode               : Variable
Bit rate                    : 256 kb/s
Channel(s)                  : 2 channels
Channel positions           : Front: L R
Sampling rate               : 48.0 kHz
Frame rate                  : 46.875 FPS (1024 SPF)
Compression mode            : Lossy
Stream size                 : 41.7 MiB (6%)
Encoded date                : UTC 2015-06-16 07:48:22
Tagged date                 : UTC 2015-06-16 07:48:22


SCREENSHOTS:

Files:

  • The Jigsaw.2014.1080p.WEBRip.x264.AAC.HORiZON-ArtSubs.mp4 (69.9 MB)

There are currently no comments. Feel free to leave one :)

Code:

  • udp://tracker.opentrackr.org:1337/announce
  • udp://tracker.coppersurfer.tk:6969/announce
  • udp://tracker.leechers-paradise.org:6969/announce
  • udp://tracker.zer0day.to:1337/announce
/08/e7/ff/08e7ffd6a1ad8052c7c702273b643766.js'>