Destroyer (2018)Mp-4 X264 1080p AAC[DaScubaDude]

  • Category Movies
  • Type HD
  • Language English
  • Total size 1.9 GB
  • Uploaded By dascuba1337
  • Downloads 444
  • Last checked 4 months ago
  • Date uploaded 4 months ago
  • Seeders 35
  • Leechers 8

Destroyer

ThrillerCrimeDrama

Erin Bell is an LAPD detective who, as a young cop, was placed undercover with a gang in the California desert with tragic results. When the leader of that gang re-emerges many years later, she must work her way back through the remaining members and into her own history with them to finally reckon with the demons that destroyed her past.

Infohash : 6034FE2139349C4FE32FFF7E11D64E688FA3D42C


[youtube]lJuP2rYieZA[/youtube]
IMDb Info for this Film
General
Complete name : COLD_PURSUIT.theatrical.mp4
Format : MPEG-4
Format profile : Base Media / Version 2
Codec ID : mp42 (mp42/isom/avc1)
File size : 1.84 GiB
Duration : 1 h 59 min
Overall bit rate mode : Variable
Overall bit rate : 2 214 kb/s
Movie name : COLD_PURSUIT.theatrical
Album : COLD_PURSUIT
Encoded date : UTC 2019-07-16 23:40:00
Tagged date : UTC 2019-07-17 01:13:46
Writing application : DVDFab 11.0.3.9
Cover : Yes

Video
ID : 1
Format : AVC
Format/Info : Advanced Video Codec
Format profile : [email protected]
Format settings : CABAC / 2 Ref Frames
Format settings, CABAC : Yes
Format settings, RefFrames : 2 frames
Format settings, GOP : M=1, N=24
Codec ID : avc1
Codec ID/Info : Advanced Video Coding
Duration : 1 h 59 min
Source duration : 1 h 59 min
Bit rate mode : Variable
Bit rate : 1 747 kb/s
Maximum bit rate : 2 776 kb/s
Width : 1 920 pixels
Height : 804 pixels
Display aspect ratio : 2.40:1
Frame rate mode : Constant
Frame rate : 23.976 (24000/1001) FPS
Color space : YUV
Chroma subsampling : 4:2:0
Bit depth : 8 bits
Scan type : Progressive
Bits/(Pixel*Frame) : 0.047
Stream size : 1.45 GiB (79%)
Source stream size : 1.45 GiB (79%)
Encoded date : UTC 2019-07-16 23:40:00
Tagged date : UTC 2019-07-17 01:13:46
Color primaries : BT.709
Transfer characteristics : BT.709
Matrix coefficients : BT.709
Menus : 5

Audio
ID : 2
Format : AAC
Format/Info : Advanced Audio Codec
Format profile : LC
Codec ID : mp4a-40-2
Duration : 1 h 59 min
Bit rate mode : Variable
Bit rate : 448 kb/s
Maximum bit rate : 458 kb/s
Channel(s) : 6 channels
Channel positions : Front: L C R, Side: L R, LFE
Sampling rate : 48.0 kHz
Frame rate : 46.875 FPS (1024 SPF)
Compression mode : Lossy
Stream size : 381 MiB (20%)
Title : English (aac 5.1)
Language : English
Default : Yes
Alternate group : 1
Encoded date : UTC 2019-07-16 23:40:00
Tagged date : UTC 2019-07-17 01:13:46

Text #1
ID : 3
Format : VobSub
Codec ID : mp4s-E0
Codec ID/Info : The same subtitle format used on DVDs
Duration : 1 h 50 min
Bit rate mode : Variable
Bit rate : 8 678 b/s
Maximum bit rate : 4 249 Mb/s
Stream size : 6.85 MiB (0%)
Language : English
Default : Yes
Forced : No
Alternate group : 2
Encoded date : UTC 2019-07-16 23:40:00
Tagged date : UTC 2019-07-17 01:09:30

Files:

DESTROYER
  • screenshot426.jpg (31.8 KB)
  • screenshot423.jpg (36.1 KB)
  • screenshot430.jpg (37.8 KB)
  • screenshot422.jpg (55.2 KB)
  • mark.gif (208.2 KB)
  • DESTROYER.Title800.mp4 (1.9 GB)

There are currently no comments. Feel free to leave one :)

Code:

  • udp://tracker.openbittorrent.com:80/announce
  • udp://tracker.opentrackr.org:1337/announce
  • udp://tracker.coppersurfer.tk:6969/announce
  • udp://9.rarbg.to:2710/announce
/08/e7/ff/08e7ffd6a1ad8052c7c702273b643766.js'>