Ma.2019.CAM.XViD-ThE CoLLeCtiVe

  • CategoryMovies
  • TypeDivx/Xvid
  • LanguageEnglish
  • Total size1.4 GB
  • Uploaded ByHiCKLYFE
  • Downloads217
  • Last checkedAug. 03rd '19
  • Date uploadedAug. 03rd '19
  • Seeders 8
  • Leechers7

Ma

Thriller Horror

Sue Ann is a loner who keeps to herself in her quiet Ohio town. One day, she is asked by Maggie, a new teenager in town, to buy some booze for her and her friends, and Sue Ann sees the chance to make some unsuspecting, if younger, friends of her own.

Infohash : 325B9D7F29BBB4FA9AADE7F9218EFF1D64675E2E



---------------------------------------------------------------------------------------------------
""8"" 8"""" 8""""8 8 8 8""""8 88 8
8 e e 8 8 " eeeee 8 8 eeee 8 " eeeee e 88 8 eeee
8e 8 8 8eeee 8e 8 88 8e 8e 8 8e 8 8 88 e8 8
88 8eee8 88 88 8 8 88 88 8eee 88 8e 8e "8 8 8eee
88 88 8 88 88 e 8 8 88 88 88 88 e 88 88 8 8 88
88 88 8 88eee 88eee8 8eee8 88eee 88eee 88ee 88eee8 88 88 8ee8 88ee
---------------------------------------------------------------------------------------------------



Ma (2019)

Rated: R 1h 39min | Horror, Thriller | 31 May 2019 (USA)
Director: Tate Taylor
Writer: Scotty Landes
Stars: Octavia Spencer, Diana Silvers, Juliette Lewis



https://www.youtube.com/watch?v=eIvbEC8N3cA

---------------------------------------------------------------------------------------------------

Anna (2019) HDCAM x264 AC3 - ThE CoLLeCtiVe

Ripper ...........: ThE CoLLeCtiVe IMDB Rating.......:5.9/10
Video Codec.......: XViD Release Date......:2019/7/16
Audio Codec.......:mp3 Theatre Date......:2019/3/31
Audio Bitrate.....:128 Runtime...........:1h 39min
Subtitles.........:N/A Language..........:ENGLISH
Resolution........:720x320
IMDB URL..........:https://www.imdb.com/title/tt7958736/

DETAILS:
Format : AVI
Format/Info : Audio Video Interleave
File size : 1.37 GiB
Duration : 1 h 32 min
Overall bit rate : 2 116 kb/s

Video
ID : 0
Format : MPEG-4 Visual
Format profile : Advanced [email protected]
Format settings : BVOP2 / QPel
Format settings, BVOP : 2
Format settings, QPel : Yes
Format settings, GMC : No warppoints
Format settings, Matrix : Default (H.263)
Muxing mode : Packed bitstream
Codec ID : XVID
Codec ID/Hint : XviD
Duration : 1 h 32 min
Bit rate : 1 981 kb/s
Width : 720 pixels
Height : 320 pixels
Display aspect ratio : 2.25:1
Frame rate : 29.970 (30000/1001) FPS
Color space : YUV
Chroma subsampling : 4:2:0
Bit depth : 8 bits
Scan type : Progressive
Compression mode : Lossy
Bits/(Pixel*Frame) : 0.287
Stream size : 1.28 GiB (94%)
Writing library : XviD 67

Audio
ID : 1
Format : MPEG Audio
Format version : Version 1
Format profile : Layer 3
Format settings : Joint stereo / MS Stereo
Codec ID : 55
Codec ID/Hint : MP3
Duration : 1 h 32 min
Bit rate mode : Constant
Bit rate : 128 kb/s
Channel(s) : 2 channels
Sampling rate : 48.0 kHz
Frame rate : 41.667 FPS (1152 SPF)
Compression mode : Lossy
Stream size : 84.8 MiB (6%)
Alignment : Aligned on interleaves
Interleave, duration : 133 ms (4.00 video frames)
Interleave, preload duration : 216 ms
Title : audio
Writing library : LAME3.100
Encoding settings : -m j -V 4 -q 2 -lowpass 17 -b 128




Wanna thank Chief Wiggims for video source and Apu for audio..

Took source and made script to crop and resize then added sum filters to make it look better.
NO WATERMARKS OR ADS AT ALL.. YOUR WELCOME.. 1XBET IS NOW ON NOTICE..

Greets to all past and present day PTP groups!!!






Files:

Ma.2019.CAM.XViD-ThE CoLLeCtiVe
  • Ma.2019.CAM.XViD-ThE CoLLeCtiVe..avi (1.4 GB)
  • sample2.avi (44.3 MB)
  • sample1.avi (36.4 MB)
  • ThE CoLLeCtiVe.nfo (5.0 KB)

Code:

  • UDP://TRACKER.LEECHERS-PARADISE.ORG:6969/ANNOUNCE
  • UDP://TRACKER.COPPERSURFER.TK:6969/ANNOUNCE
  • UDP://TRACKER.OPENTRACKR.ORG:1337/ANNOUNCE
  • UDP://TRACKER.ZER0DAY.TO:1337/ANNOUNCE
  • UDP://EDDIE4.NL:6969/ANNOUNCE