Beyonce - The Lion King - The Gift (2019) [24bit Hi-Res]

  • Category Music
  • Type Lossless
  • Language English
  • Total size 619.4 MB
  • Uploaded By was95was
  • Downloads 1058
  • Last checked 8 months ago
  • Date uploaded 8 months ago
  • Seeders 58
  • Leechers 32

Infohash : F7F785556E6D27374708635649EAF5CDDF44D049



Quality-Lossless
Release-2019
Duration-00:54:05
File Size-649.5 MB
Genre-Hip-Hop
Cover Size-1400px

----------------------------------------------------------------------------------------------
Analyzed: The Lion King: The Gift / Artist: Beyonce
----------------------------------------------------------------------------------------------
DR Peak RMS Duration Title [codec]
----------------------------------------------------------------------------------------------
DR13 -0.01 dB -17.43 dB 0:43 01 - balance (mufasa interlude) [flac]
DR4 -0.01 dB -8.00 dB 3:46 02 - BIGGER [flac]
DR9 -0.00 dB -14.35 dB 0:46 03 - the stars (mufasa interlude) [flac]
DR5 -0.00 dB -6.22 dB 2:41 04 - FIND YOUR WAY BACK [flac]
DR9 -0.01 dB -13.30 dB 0:13 05 - uncle scar (scar interlude) [flac]
DR4 -0.01 dB -5.78 dB 2:35 06 - DON'T JEALOUS ME [flac]
DR11 -0.01 dB -16.66 dB 0:16 07 - danger (young simba & young nala interlude) [flac]
DR5 -0.01 dB -6.78 dB 3:10 08 - JA ARA E [flac]
DR8 -0.01 dB -19.32 dB 0:28 09 - run away (scar & young simba interlude) [flac]
DR6 -0.01 dB -8.94 dB 1:47 10 - NILE [flac]
DR14 -0.75 dB -22.43 dB 0:53 11 - new lesson (timon, pumbaa & young simba interlude) [flac]
DR5 -0.01 dB -7.54 dB 4:32 12 - MOOD 4 EVA [flac]
DR17 -1.52 dB -20.05 dB 0:08 13 - reunited (nala & simba interlude) [flac]
DR4 -0.01 dB -6.33 dB 2:31 14 - WATER [flac]
DR6 -0.01 dB -8.58 dB 4:08 15 - BROWN SKIN GIRL [flac]
DR13 -2.15 dB -20.29 dB 0:14 16 - come home (nala interlude) [flac]
DR4 -0.01 dB -7.22 dB 3:18 17 - KEYS TO THE KINGDOM [flac]
DR14 -0.01 dB -20.53 dB 0:31 18 - follow me (rafiki interlude) [flac]
DR5 -0.01 dB -7.50 dB 3:41 19 - ALREADY [flac]
DR12 -1.42 dB -18.90 dB 0:45 20 - remember (mufasa interlude) [flac]
DR6 -0.02 dB -8.87 dB 3:39 21 - OTHERSIDE [flac]
DR6 -0.01 dB -11.88 dB 0:18 22 - war (nala interlude) [flac]
DR4 -0.00 dB -7.02 dB 4:19 23 - MY POWER [flac]
DR11 -0.06 dB -13.90 dB 0:14 24 - surrender (simba & scar interlude) [flac]
DR6 -0.01 dB -9.63 dB 3:06 25 - SCAR [flac]
DR13 -1.50 dB -19.33 dB 0:42 26 - i'm home (mufasa, sarabi & simba interlude) [flac]
DR5 -0.01 dB -9.67 dB 4:37 27 - SPIRIT (From Disney's "The Lion King") [flac]
----------------------------------------------------------------------------------------------
Number of files: 27
Official DR value: DR8

Sampling rate: 44100 Hz
Average bitrate: 1535kbs
Bits per sample: 24 bit

Files:

Beyonce - The Lion King - The Gift (2019) [24bit Hi-Res]
  • 01. balance (mufasa interlude).flac (7.7 MB)
  • 02. BIGGER.flac (42.5 MB)
  • 03. the stars (mufasa interlude).flac (8.5 MB)
  • 04. FIND YOUR WAY BACK.flac (31.8 MB)
  • 05. uncle scar (scar interlude).flac (1.6 MB)
  • 06. DON'T JEALOUS ME.flac (30.7 MB)
  • 07. danger (young simba & young nala interlude).flac (3.1 MB)
  • 08. JA ARA E.flac (38.3 MB)
  • 09. run away (scar & young simba interlude).flac (4.8 MB)
  • 10. NILE.flac (20.2 MB)
  • 11. new lesson (timon, pumbaa & young simba interlude).flac (8.8 MB)
  • 12. MOOD 4 EVA.flac (54.2 MB)
  • 13. reunited (nala & simba interlude).flac (1.8 MB)
  • 14. WATER.flac (30.4 MB)
  • 15. BROWN SKIN GIRL.flac (47.5 MB)
  • 16. come home (nala interlude).flac (2.5 MB)
  • 17. KEYS TO THE KINGDOM.flac (36.6 MB)
  • 18. follow me (rafiki interlude).flac (5.5 MB)
  • 19. ALREADY.flac (41.5 MB)
  • 20. remember (mufasa interlude).flac (7.1 MB)
  • 21. OTHERSIDE.flac (38.7 MB)
  • 22. war (nala interlude).flac (3.4 MB)
  • 23. MY POWER.flac (55.0 MB)
  • 24. surrender (simba & scar interlude).flac (2.6 MB)
  • 25. SCAR.flac (34.8 MB)
  • 26. i'm home (mufasa, sarabi & simba interlude).flac (7.5 MB)
  • 27. SPIRIT (From Disney's -The Lion King-).flac (51.9 MB)
  • [TGx]Downloaded from torrentgalaxy.org .txt (0.6 KB)
  • cover.jpg (274.2 KB)
  • dr14.txt (2.5 KB)
  • Torrent Downloaded from Glodls.to.txt (0.2 KB)
  • Torrent downloaded from limetorrents.cc.txt (0.1 KB)
  • Torrent Downloaded from worldwidetorrents.to (0.1 KB)

There are currently no comments. Feel free to leave one :)

Code:

  • udp://tracker.piratepublic.com:1337/announce
  • udp://tracker.pirateparty.gr:6969/announce
  • udp://tracker.coppersurfer.tk:6969/announce
  • udp://tracker.leechers-paradise.org:6969/announce
  • udp://9.rarbg.com:2710/announce
  • http://p4p.arenabg.com:1337/announce
  • http://explodie.org:6969/announce
  • udp://tracker.opentrackr.org:1337/announce
  • udp://exodus.desync.com:6969/announce
  • udp://tracker.leechers-paradise.org:6969/announce
  • udp://tracker.zer0day.to:1337/announce
  • udp://open.demonii.si:1337/announce
  • udp://exodus.desync.com:6969/announce
  • udp://tracker.iamhansen.xyz:2000/announce