Shadaa.(2019).Punjabi.720p.HDRip.x264.AC3-5.1-Hon3yHD

  • Category Movies
  • Type Bollywood
  • Language Punjabi
  • Total size 3.0 GB
  • Uploaded By Hon3yHD
  • Downloads 452
  • Last checked 1 month ago
  • Date uploaded 1 month ago
  • Seeders 14
  • Leechers 3

Shadaa

ComedyRomanceMusic

Amidst pressures from his parents to hurry up and wed, a young man seeks his perfect match. After many failed attempts with matchmakers, his parents are delighted when their son finally meets the woman of his dreams but things do not go as planned.

Infohash : 0E3902DED406B1B4AECE9A310387F7C066D97445

Quote:




Complete name :Shadaa.(2019).Punjabi.720p.HDRip.x264.AC3-5.1-Hon3yHD.mkv
Format : Matroska
Format version : Version 2
File size : 3.02 GiB
Duration : 2 h 7 min
Overall bit rate mode : Variable
Overall bit rate : 3 379 kb/s


Video
ID : 1
Format : AVC
Format/Info : Advanced Video Codec
Format profile : [email protected]
Format settings : CABAC / 9 Ref Frames
Format settings, CABAC : Yes
Format settings, RefFrames : 9 frames
Codec ID : V_MPEG4/ISO/AVC
Duration : 2 h 7 min
Bit rate mode : Variable
Bit rate : 2 738 kb/s
Maximum bit rate : 62.5 Mb/s
Width : 1 280 pixels
Height : 544 pixels
Display aspect ratio : 2.35:1
Original display aspect ratio : 2.35:1
Frame rate mode : Constant
Frame rate : 24.000 FPS
Color space : YUV
Chroma subsampling : 4:2:0
Bit depth : 8 bits
Scan type : Progressive
Bits/(Pixel*Frame) : 0.164
Stream size : 2.44 GiB (81%)

Default : No
Forced : No
Color range : Limited
Color primaries : BT.709
Transfer characteristics : BT.709
Matrix coefficients : BT.709

Audio
ID : 2
Format : AC-3
Format/Info : Audio Coding 3
Commercial name : Dolby Digital
Codec ID : A_AC3
Duration : 2 h 7 min
Bit rate mode : Constant
Bit rate : 640 kb/s
Channel(s) : 6 channels
Channel layout : L R C LFE Ls Rs
Sampling rate : 48.0 kHz
Frame rate : 31.250 FPS (1536 SPF)
Bit depth : 16 bits
Compression mode : Lossy
Stream size : 585 MiB (19%)
Language : Panjabi
Service kind : Complete Main
Default : Yes
Forced : No

Text
ID : 3
Format : UTF-8
Codec ID : S_TEXT/UTF8
Codec ID/Info : UTF-8 Plain Text
Duration : 2 h 5 min
Bit rate : 88 b/s
Count of elements : 2320
Stream size : 81.4 KiB (0%)
Language : English
Default : Yes
Forced : Yes












Files:

  • Shadaa.(2019).Punjabi.720p.HDRip.x264.AC3-5.1-Hon3yHD.mkv (3.0 GB)

There are currently no comments. Feel free to leave one :)

Code:

  • udp://tracker.openbittorrent.com:80/announce
  • udp://tracker.opentrackr.org:1337/announce
  • udp://tracker.coppersurfer.tk:6969/announce
  • udp://tracker.leechers-paradise.org:6969/announce
  • udp://tracker.internetwarriors.net:1337/announce
  • udp://tracker.opentrackr.org:1337/announce
  • udp://9.rarbg.to:2780/announce
  • udp://exodus.desync.com:6969/announce
  • udp://tracker1.itzmx.com:8080/announce
  • udp://explodie.org:6969/announce
  • http://tracker3.itzmx.com:6961/announce
  • udp://tracker.port443.xyz:6969/announce
  • udp://tracker.torrent.eu.org:451/announce
  • udp://tracker.coppersurfer.tk:6969/announce
/08/e7/ff/08e7ffd6a1ad8052c7c702273b643766.js'>