Kesari 2019 [Hindi] 1080p WEB-DL x264 AC3 5.1 MSubS -Hon3yHD

  • Category Movies
  • Type Bollywood
  • Language English
  • Total size 7.5 GB
  • Uploaded By Hon3yHD
  • Downloads 585
  • Last checked 1 month ago
  • Date uploaded 1 month ago
  • Seeders 20
  • Leechers 25

Kesari

ActionDramaHistory

The story of Havildar Ishar Singh who participates in the Battle of Saragarhi while yearning for the respect of his estranged daughter.

Infohash : 7EE996C1B185FEBB5534DD9D1605C7721D78E492



Kesari 2019 [Hindi] 1080p WEB-DL x264 AC3 5.1 MSubS -Hon3yHD


Format : Matroska
Format version : Version 4 / Version 2
File size : 7.50 GiB
Duration : 2 h 33 min
Overall bit rate : 7 008 kb/s
Movie name : Kesari 2019 - Hon3yHD
Encoded date : UTC 2019-08-02 07:37:52
Writing application : mkvmerge v35.0.0 ('All The Love In The World') 64-bit
Writing library : libebml v1.3.9 + libmatroska v1.5.2

Video
ID : 1
Format : AVC
Format/Info : Advanced Video Codec
Format profile : [email protected]
Format settings, CABAC : Yes
Format settings, ReFrames : 4 frames
Codec ID : V_MPEG4/ISO/AVC
Duration : 2 h 33 min
Bit rate : 6 365 kb/s
Width : 1 920 pixels
Height : 1 080 pixels
Display aspect ratio : 16:9
Frame rate mode : Constant
Frame rate : 24.000 FPS
Color space : YUV
Chroma subsampling : 4:2:0
Bit depth : 8 bits
Scan type : Progressive
Bits/(Pixel*Frame) : 0.128
Stream size : 6.82 GiB (91%)
Language : Hindi
Default : Yes
Forced : No
Color range : Limited
Color primaries : BT.709
Transfer characteristics : BT.709
Matrix coefficients : BT.709

Audio
ID : 2
Format : E-AC-3
Format/Info : Enhanced Audio Coding 3
Format settings, Endianness : Big
Codec ID : A_EAC3
Duration : 2 h 33 min
Bit rate mode : Constant
Bit rate : 640 kb/s
Channel(s) : 6 channels
Channel positions : Front: L C R, Side: L R, LFE
Sampling rate : 48.0 kHz
Frame rate : 187.500 FPS (256 spf)
Compression mode : Lossy
Stream size : 702 MiB (9%)
Language : Hindi
Default : Yes
Forced : No

Text #1
ID : 3
Format : UTF-8
Codec ID : S_TEXT/UTF8
Codec ID/Info : UTF-8 Plain Text
Duration : 2 h 26 min
Bit rate : 33 b/s
Count of elements : 1229
Stream size : 35.9 KiB (0%)
Language : English
Default : Yes
Forced : No

Text #2
ID : 4
Format : UTF-8
Codec ID : S_TEXT/UTF8
Codec ID/Info : UTF-8 Plain Text
Duration : 2 h 26 min
Bit rate : 34 b/s
Count of elements : 1226
Stream size : 37.4 KiB (0%)
Language : Indonesian
Default : No
Forced : No

Text #3
ID : 5
Format : UTF-8
Codec ID : S_TEXT/UTF8
Codec ID/Info : UTF-8 Plain Text
Duration : 2 h 27 min
Bit rate : 120 b/s
Count of elements : 1365
Stream size : 130 KiB (0%)
Language : Tamil
Default : No
Forced : No

Text #4
ID : 6
Format : UTF-8
Codec ID : S_TEXT/UTF8
Codec ID/Info : UTF-8 Plain Text
Duration : 2 h 27 min
Bit rate : 98 b/s
Count of elements : 1366
Stream size : 106 KiB (0%)
Language : Telugu
Default : No
Forced : No










Files:

Kesari 2019 [Hindi] 1080p WEB-DL x264 AC3 5.1 MSubS -Hon3yHD
  • Buy Cheapest RDP from www.cyber-planet.in.txt (0.0 KB)
  • Hon3yHD.net.txt (0.0 KB)
  • Kesari 2019 [Hindi] 1080p WEB-DL x264 AC3 5.1 MSubS -Hon3yHD.mkv (7.5 GB)

There are currently no comments. Feel free to leave one :)

Code:

  • udp://tracker.coppersurfer.tk:6969/announce
  • udp://tracker.leechers-paradise.org:6969/announce
  • udp://bt.xxx-tracker.com:2710/announce
  • udp://tracker.internetwarriors.net:1337/announce
  • udp://tracker.openbittorrent.com:80/announce
  • udp://explodie.org:6969/announce
  • udp://tracker.opentrackr.org:1337/announce
  • udp://tracker.tiny-vps.com:6969/announce
  • udp://open.demonii.si:1337/announce
  • udp://tracker.torrent.eu.org:451/announce
  • udp://tracker.pirateparty.gr:6969/announce
  • udp://ipv4.tracker.harry.lu:80/announce
  • udp://tracker.cyberia.is:6969/announce
  • udp://9.rarbg.to:2710/announce
  • udp://denis.stalker.upeer.me:6969/announce
/08/e7/ff/08e7ffd6a1ad8052c7c702273b643766.js'>