Bhoot Chaturdashi 2019 [Bengali] 1080p WEB-DL x264 AC3 5.1 ESub -...

  • Category Movies
  • Type Bollywood
  • Language Bengali/Bangla
  • Total size 3.8 GB
  • Uploaded By Hon3yHD
  • Downloads 1795
  • Last checked 1 month ago
  • Date uploaded 1 month ago
  • Seeders 27
  • Leechers 7

Infohash : DEA433FC71974E6396167BB423F1F4AC7B4346CF





Bhoot Chaturdashi 2019 [Bengali] 1080p WEB-DL x264 AC3 5.1 ESub - Hon3yHD


Format : Matroska
Format version : Version 4 / Version 2
File size : 3.80 GiB
Duration : 1 h 38 min
Overall bit rate : 5 544 kb/s
Movie name : Bhoot Chaturdashi 2019 - Hon3yHD
Encoded date : UTC 2019-08-02 08:17:00
Writing application : mkvmerge v35.0.0 ('All The Love In The World') 64-bit
Writing library : libebml v1.3.9 + libmatroska v1.5.2

Video
ID : 1
Format : AVC
Format/Info : Advanced Video Codec
Format profile : [email protected]
Format settings, CABAC : Yes
Format settings, ReFrames : 4 frames
Codec ID : V_MPEG4/ISO/AVC
Duration : 1 h 38 min
Bit rate : 4 902 kb/s
Width : 1 920 pixels
Height : 816 pixels
Display aspect ratio : 2.35:1
Frame rate mode : Constant
Frame rate : 24.000 FPS
Color space : YUV
Chroma subsampling : 4:2:0
Bit depth : 8 bits
Scan type : Progressive
Bits/(Pixel*Frame) : 0.130
Stream size : 3.36 GiB (88%)
Language : Bengali
Default : Yes
Forced : No
Color range : Limited
Color primaries : BT.709
Transfer characteristics : BT.709
Matrix coefficients : BT.709

Audio
ID : 2
Format : E-AC-3
Format/Info : Enhanced Audio Coding 3
Format settings, Endianness : Big
Codec ID : A_EAC3
Duration : 1 h 38 min
Bit rate mode : Constant
Bit rate : 640 kb/s
Channel(s) : 6 channels
Channel positions : Front: L C R, Side: L R, LFE
Sampling rate : 48.0 kHz
Frame rate : 187.500 FPS (256 spf)
Compression mode : Lossy
Stream size : 449 MiB (12%)
Language : Bengali
Default : Yes
Forced : No

Text
ID : 3
Format : UTF-8
Codec ID : S_TEXT/UTF8
Codec ID/Info : UTF-8 Plain Text
Duration : 1 h 31 min
Bit rate : 53 b/s
Count of elements : 1154
Stream size : 36.0 KiB (0%)
Language : English
Default : Yes
Forced : No













Files:

Bhoot Chaturdashi 2019 [Bengali] 1080p WEB-DL x264 AC3 5.1 ESub - Hon3yHD
  • Buy Cheapest RDP from www.cyber-planet.in.txt (0.0 KB)
  • Hon3yHD.net.txt (0.0 KB)
  • Bhoot Chaturdashi 2019 [Bengali] 1080p WEB-DL x264 AC3 5.1 ESub - Hon3yHD.mkv (3.8 GB)

Comments

Code:

  • udp://tracker.coppersurfer.tk:6969/announce
  • udp://tracker.leechers-paradise.org:6969/announce
  • udp://bt.xxx-tracker.com:2710/announce
  • udp://tracker.internetwarriors.net:1337/announce
  • udp://tracker.openbittorrent.com:80/announce
  • udp://explodie.org:6969/announce
  • udp://tracker.opentrackr.org:1337/announce
  • udp://tracker.tiny-vps.com:6969/announce
  • udp://open.demonii.si:1337/announce
  • udp://tracker.torrent.eu.org:451/announce
  • udp://tracker.pirateparty.gr:6969/announce
  • udp://ipv4.tracker.harry.lu:80/announce
  • udp://tracker.cyberia.is:6969/announce
  • udp://9.rarbg.to:2710/announce
  • udp://denis.stalker.upeer.me:6969/announce
/08/e7/ff/08e7ffd6a1ad8052c7c702273b643766.js'>