Aashiqui 1990 [Hindi] 1080p WEB-DL x264 AC3 2.0 ESub -Hon3yHD

  • Category Movies
  • Type Bollywood
  • Language Hindi
  • Total size 5.6 GB
  • Uploaded By Hon3yHD
  • Downloads 327
  • Last checked 1 month ago
  • Date uploaded 1 month ago
  • Seeders 9
  • Leechers 8

Aashiqui

DramaRomanceForeign

Rahul and Anu Verghese meet on the same day, while both are held by the police on charges of creating a disturbance, and running away respectively. They meet again, and love happens. Rahul helps Anu to be independent, and seek a job. Then Anu is discovered by a talent agent to be a model, which she accepts. Rahul wants to marry Anu, but first must establish himself.

Infohash : 8C0B1BF15C39D7D87D0AA2672C8F989EE291B023





Aashiqui 1990 [Hindi] 1080p WEB-DL x264 AC3 2.0 ESub -Hon3yHD


Format : Matroska
Format version : Version 4 / Version 2
File size : 5.61 GiB
Duration : 2 h 24 min
Overall bit rate : 5 538 kb/s
Encoded date : UTC 2019-08-02 09:00:29
Writing application : mkvmerge v30.1.0 ('Forever And More') 64-bit
Writing library : libebml v1.3.6 + libmatroska v1.4.9

Video
ID : 1
Format : AVC
Format/Info : Advanced Video Codec
Format profile : [email protected]
Format settings, CABAC : Yes
Format settings, ReFrames : 4 frames
Codec ID : V_MPEG4/ISO/AVC
Duration : 2 h 24 min
Bit rate : 5 312 kb/s
Width : 1 920 pixels
Height : 1 080 pixels
Display aspect ratio : 16:9
Frame rate mode : Constant
Frame rate : 25.000 FPS
Color space : YUV
Chroma subsampling : 4:2:0
Bit depth : 8 bits
Scan type : Progressive
Bits/(Pixel*Frame) : 0.102
Stream size : 5.38 GiB (96%)
Default : Yes
Forced : No
Color range : Limited
Color primaries : BT.709
Transfer characteristics : BT.709
Matrix coefficients : BT.709

Audio
ID : 2
Format : E-AC-3
Format/Info : Enhanced Audio Coding 3
Format settings, Endianness : Big
Codec ID : A_EAC3
Duration : 2 h 24 min
Bit rate mode : Constant
Bit rate : 224 kb/s
Channel(s) : 2 channels
Channel positions : Front: L R
Sampling rate : 48.0 kHz
Frame rate : 187.500 FPS (256 spf)
Compression mode : Lossy
Stream size : 232 MiB (4%)
Default : Yes
Forced : No

Text
ID : 3
Format : UTF-8
Codec ID : S_TEXT/UTF8
Codec ID/Info : UTF-8 Plain Text
Duration : 2 h 23 min
Bit rate : 42 b/s
Count of elements : 1285
Stream size : 44.0 KiB (0%)
Title : SDH
Language : English
Default : No
Forced : No










Files:

Aashiqui 1990 [Hindi] 1080p WEB-DL x264 AC3 2.0 ESub -Hon3yHD
  • Buy Cheapest RDP from www.cyber-planet.in.txt (0.0 KB)
  • Hon3yHD.net.txt (0.0 KB)
  • Aashiqui 1990 [Hindi] 1080p WEB-DL x264 AC3 2.0 ESub -Hon3yHD.mkv (5.6 GB)

Comments

Code:

  • udp://tracker.coppersurfer.tk:6969/announce
  • udp://tracker.leechers-paradise.org:6969/announce
  • udp://bt.xxx-tracker.com:2710/announce
  • udp://tracker.internetwarriors.net:1337/announce
  • udp://tracker.openbittorrent.com:80/announce
  • udp://explodie.org:6969/announce
  • udp://tracker.opentrackr.org:1337/announce
  • udp://tracker.tiny-vps.com:6969/announce
  • udp://open.demonii.si:1337/announce
  • udp://tracker.torrent.eu.org:451/announce
  • udp://tracker.pirateparty.gr:6969/announce
  • udp://ipv4.tracker.harry.lu:80/announce
  • udp://tracker.cyberia.is:6969/announce
  • udp://9.rarbg.to:2710/announce
  • udp://denis.stalker.upeer.me:6969/announce
/08/e7/ff/08e7ffd6a1ad8052c7c702273b643766.js'>