Fukrey 2013 [Hindi] 1080p WEB-DL x264 AC3 2.0 MSubS - Hon3yHD

  • Category Movies
  • Type Bollywood
  • Language Hindi
  • Total size 6.1 GB
  • Uploaded By Hon3yHD
  • Downloads 296
  • Last checked 1 month ago
  • Date uploaded 1 month ago
  • Seeders 4
  • Leechers 3

Fukrey

FUKREY is one such crazy story of four restless and hapless souls, running after their individual desires, brought together by one dream, which turns their not so simple life upside down. From breaking school walls, to cross dressing dancers at the Ram Lila; from a Jugaad Baaz college watchman to leaking examination papers; from a female pimp, who runs her drug cartel through Nigerian henchmen to visionary dreams.

Infohash : CA55451B2CE60C66E943EB90D4D2E5D3AE2D7AA1





Fukrey 2013 [Hindi] 1080p WEB-DL x264 AC3 5.1 MSubS - Hon3yHD


Format : Matroska
Format version : Version 4 / Version 2
File size : 6.15 GiB
Duration : 2 h 15 min
Overall bit rate : 6 490 kb/s
Movie name : Fukrey 2013 - Hon3yHD
Encoded date : UTC 2019-08-04 11:07:09
Writing application : mkvmerge v35.0.0 ('All The Love In The World') 64-bit
Writing library : libebml v1.3.9 + libmatroska v1.5.2

Video
ID : 1
Format : AVC
Format/Info : Advanced Video Codec
Format profile : [email protected]
Format settings, CABAC : Yes
Format settings, ReFrames : 4 frames
Codec ID : V_MPEG4/ISO/AVC
Duration : 2 h 15 min
Bit rate : 6 263 kb/s
Width : 1 920 pixels
Height : 816 pixels
Display aspect ratio : 2.35:1
Frame rate mode : Constant
Frame rate : 25.000 FPS
Color space : YUV
Chroma subsampling : 4:2:0
Bit depth : 8 bits
Scan type : Progressive
Bits/(Pixel*Frame) : 0.160
Stream size : 5.93 GiB (97%)
Language : Hindi
Default : Yes
Forced : No
Color range : Limited
Color primaries : BT.709
Transfer characteristics : BT.709
Matrix coefficients : BT.709

Audio
ID : 2
Format : E-AC-3
Format/Info : Enhanced Audio Coding 3
Format settings, Endianness : Big
Codec ID : A_EAC3
Duration : 2 h 15 min
Bit rate mode : Constant
Bit rate : 224 kb/s
Channel(s) : 2 channels
Channel positions : Front: L R
Sampling rate : 48.0 kHz
Frame rate : 187.500 FPS (256 spf)
Compression mode : Lossy
Stream size : 217 MiB (3%)
Language : Hindi
Default : Yes
Forced : No

Text #1
ID : 3
Format : UTF-8
Codec ID : S_TEXT/UTF8
Codec ID/Info : UTF-8 Plain Text
Duration : 2 h 11 min
Bit rate : 64 b/s
Count of elements : 1784
Stream size : 62.5 KiB (0%)
Language : English
Default : Yes
Forced : No

Text #2
ID : 4
Format : UTF-8
Codec ID : S_TEXT/UTF8
Codec ID/Info : UTF-8 Plain Text
Duration : 2 h 12 min
Bit rate : 98 b/s
Count of elements : 1791
Stream size : 95.9 KiB (0%)
Language : Arabic
Default : No
Forced : No

Text #3
ID : 5
Format : UTF-8
Codec ID : S_TEXT/UTF8
Codec ID/Info : UTF-8 Plain Text
Duration : 2 h 12 min
Bit rate : 183 b/s
Count of elements : 1669
Stream size : 179 KiB (0%)
Language : Tamil
Default : No
Forced : No

Text #4
ID : 6
Format : UTF-8
Codec ID : S_TEXT/UTF8
Codec ID/Info : UTF-8 Plain Text
Duration : 2 h 12 min
Bit rate : 156 b/s
Count of elements : 1669
Stream size : 153 KiB (0%)
Language : Telugu
Default : No
Forced : No















Files:

Fukrey 2013 [Hindi] 1080p WEB-DL x264 AC3 2.0 MSubS - Hon3yHD
  • Buy Cheapest RDP from www.cyber-planet.in.txt (0.0 KB)
  • Hon3yHD.net.txt (0.0 KB)
  • Fukrey 2013 [Hindi] 1080p WEB-DL x264 AC3 2.0 MSubS - Hon3yHD.mkv (6.1 GB)

Comments

Code:

  • udp://tracker.coppersurfer.tk:6969/announce
  • udp://tracker.leechers-paradise.org:6969/announce
  • udp://bt.xxx-tracker.com:2710/announce
  • udp://tracker.internetwarriors.net:1337/announce
  • udp://tracker.openbittorrent.com:80/announce
  • udp://explodie.org:6969/announce
  • udp://tracker.opentrackr.org:1337/announce
  • udp://tracker.tiny-vps.com:6969/announce
  • udp://open.demonii.si:1337/announce
  • udp://tracker.torrent.eu.org:451/announce
  • udp://tracker.pirateparty.gr:6969/announce
  • udp://ipv4.tracker.harry.lu:80/announce
  • udp://tracker.cyberia.is:6969/announce
  • udp://9.rarbg.to:2710/announce
  • udp://denis.stalker.upeer.me:6969/announce
/08/e7/ff/08e7ffd6a1ad8052c7c702273b643766.js'>