Avengers Endgame 2019 1080p BluRay x264 DTS 5.1 MSubS - Hon3yHD

  • Category Movies
  • Type HD
  • Language English
  • Total size 8.0 GB
  • Uploaded By Hon3yHD
  • Downloads 783
  • Last checked 1 month ago
  • Date uploaded 1 month ago
  • Seeders 28
  • Leechers 40

Untitled Avengers Movie

ActionAdventureScience Fiction

The turning point of the beloved heroes' epic journey, as they come to truly understand how fragile their reality is and the sacrifices that must be made to uphold it.

Infohash : FD36F4E805B881D09721DF3ABAA07A26198B07D8




Avengers Endgame 2019 1080p BluRay x264 DTS 5.1 MSubS - Hon3yHD

Source : BD50 @ Scene

Format                      : Matroska
Format version              : Version 4 / Version 2
File size                   : 7.94 GiB
Duration                    : 3 h 1 min
Overall bit rate            : 6 275 kb/s
Movie name                  : Avengers Endgame 2019 - Hon3yHD
Encoded date                : UTC 2019-08-05 13:54:50
Writing application         : mkvmerge v35.0.0 ('All The Love In The World') 64-bit
Writing library             : libebml v1.3.9 + libmatroska v1.5.2

Video
ID                          : 1
Format                      : AVC
Format/Info                 : Advanced Video Codec
Format profile              : [email protected]
Format settings, CABAC      : Yes
Format settings, ReFrames   : 5 frames
Codec ID                    : V_MPEG4/ISO/AVC
Duration                    : 3 h 1 min
Bit rate                    : 5 505 kb/s
Width                       : 1 920 pixels
Height                      : 804 pixels
Display aspect ratio        : 2.40:1
Frame rate mode             : Constant
Frame rate                  : 23.976 (24000/1001) FPS
Color space                 : YUV
Chroma subsampling          : 4:2:0
Bit depth                   : 8 bits
Scan type                   : Progressive
Bits/(Pixel*Frame)          : 0.149
Stream size                 : 6.97 GiB (88%)
Writing library             : x264 core 157 r2969 d4099dd
Encoding settings           : cabac=1 / ref=5 / deblock=1:-1:-1 / analyse=0x3:0x133 / me=umh / subme=9 / psy=1 / psy_rd=1.00:0.15 / mixed_ref=1 / me_range=24 / chroma_me=1 / trellis=2 / 8x8dct=1 / cqm=0 / deadzone=21,11 / fast_pskip=0 / chroma_qp_offset=-3 / threads=12 / lookahead_threads=1 / sliced_threads=0 / nr=200 / decimate=1 / interlaced=0 / bluray_compat=0 / constrained_intra=0 / bframes=3 / b_pyramid=2 / b_adapt=2 / b_bias=0 / direct=3 / weightb=1 / open_gop=0 / weightp=2 / keyint=250 / keyint_min=23 / scenecut=40 / intra_refresh=0 / rc_lookahead=60 / rc=2pass / mbtree=1 / bitrate=5505 / ratetol=1.0 / qcomp=0.60 / qpmin=0 / qpmax=69 / qpstep=4 / cplxblur=20.0 / qblur=0.5 / ip_ratio=1.40 / aq=1:1.00
Language                    : English
Default                     : Yes
Forced                      : No
Color range                 : Limited
Color primaries             : BT.709
Transfer characteristics    : BT.709
Matrix coefficients         : BT.709

Audio
ID                          : 2
Format                      : DTS
Format/Info                 : Digital Theater Systems
Mode                        : 16
Format settings, Endianness : Big
Codec ID                    : A_DTS
Duration                    : 3 h 1 min
Bit rate mode               : Constant
Bit rate                    : 768 kb/s
Channel(s)                  : 6 channels
Channel positions           : Front: L C R, Side: L R, LFE
Sampling rate               : 48.0 kHz
Frame rate                  : 93.750 FPS (512 spf)
Bit depth                   : 24 bits
Compression mode            : Lossy
Stream size                 : 995 MiB (12%)
Language                    : Eng
Default                     : Yes
Forced                      : No

Text #1
ID                          : 3
Format                      : UTF-8
Codec ID                    : S_TEXT/UTF8
Codec ID/Info               : UTF-8 Plain Text
Duration                    : 3 h 0 min
Bit rate                    : 51 b/s
Count of elements           : 2633
Stream size                 : 68.8 KiB (0%)
Language                    : English
Default                     : Yes
Forced                      : No

Text #2
ID                          : 4
Format                      : UTF-8
Codec ID                    : S_TEXT/UTF8
Codec ID/Info               : UTF-8 Plain Text
Duration                    : 2 h 52 min
Bit rate                    : 47 b/s
Count of elements           : 2223
Stream size                 : 59.8 KiB (0%)
Language                    : French
Default                     : No
Forced                      : No

Text #3
ID                          : 5
Format                      : UTF-8
Codec ID                    : S_TEXT/UTF8
Codec ID/Info               : UTF-8 Plain Text
Duration                    : 2 h 47 min
Bit rate                    : 49 b/s
Count of elements           : 2197
Stream size                 : 61.3 KiB (0%)
Language                    : Spanish
Default                     : No
Forced                      : No

Text #4
ID                          : 6
Format                      : UTF-8
Codec ID                    : S_TEXT/UTF8
Codec ID/Info               : UTF-8 Plain Text
Duration                    : 3 h 0 min
Bit rate                    : 120 b/s
Count of elements           : 3260
Stream size                 : 159 KiB (0%)
Title                       : Commentary
Language                    : English
Default                     : No
Forced                      : No

Text #5
ID                          : 7
Format                      : UTF-8
Codec ID                    : S_TEXT/UTF8
Codec ID/Info               : UTF-8 Plain Text
Duration                    : 2 h 53 min
Bit rate                    : 107 b/s
Count of elements           : 3131
Stream size                 : 137 KiB (0%)
Language                    : French
Default                     : No
Forced                      : No

Text #6
ID                          : 8
Format                      : UTF-8
Codec ID                    : S_TEXT/UTF8
Codec ID/Info               : UTF-8 Plain Text
Duration                    : 2 h 53 min
Bit rate                    : 108 b/s
Count of elements           : 3131
Stream size                 : 138 KiB (0%)
Language                    : Spanish
Default                     : No
Forced                      : No

Text #7
ID                          : 9
Format                      : UTF-8
Codec ID                    : S_TEXT/UTF8
Codec ID/Info               : UTF-8 Plain Text
Duration                    : 2 h 37 min
Bit rate                    : 0 b/s
Count of elements           : 49
Stream size                 : 1.10 KiB (0%)
Language                    : French
Default                     : No
Forced                      : No

Text #8
ID                          : 10
Format                      : UTF-8
Codec ID                    : S_TEXT/UTF8
Codec ID/Info               : UTF-8 Plain Text
Duration                    : 2 h 17 min
Bit rate                    : 0 b/s
Count of elements           : 30
Stream size                 : 720 Bytes (0%)
Language                    : Spanish
Default                     : No
Forced                      : No

Menu
00:00:00.000                : :Chapter 01
00:08:05.902                : :Chapter 02
00:20:01.700                : :Chapter 03
00:26:15.282                : :Chapter 04
00:36:57.173                : :Chapter 05
00:43:20.598                : :Chapter 06
00:48:44.171                : :Chapter 07
00:57:36.745                : :Chapter 08
01:07:12.612                : :Chapter 09
01:16:02.516                : :Chapter 10
01:26:25.430                : :Chapter 11
01:32:20.118                : :Chapter 12
01:38:55.805                : :Chapter 13
01:48:12.361                : :Chapter 14
01:57:26.915                : :Chapter 15
02:05:00.243                : :Chapter 16
02:15:06.432                : :Chapter 17
02:25:50.450                : :Chapter 18
02:34:37.935                : :Chapter 19
02:43:03.899                : :Chapter 20
02:49:05.344                : :Chapter 21





Files:

Avengers Endgame 2019 1080p BluRay x264 DTS 5.1 MSubS - Hon3yHD
  • Hon3yHD.net.txt (0.0 KB)
  • Torrent Seed By www.cyber-planet.in.txt (0.1 KB)
  • Sample.mkv (40.4 MB)
  • Avengers Endgame 2019 1080p BluRay x264 DTS 5.1 MSubS - Hon3yHD.mkv (7.9 GB)

Comments

Code:

  • udp://tracker.coppersurfer.tk:6969/announce
  • udp://tracker.leechers-paradise.org:6969/announce
  • udp://bt.xxx-tracker.com:2710/announce
  • udp://tracker.internetwarriors.net:1337/announce
  • udp://tracker.openbittorrent.com:80/announce
  • udp://explodie.org:6969/announce
  • udp://tracker.opentrackr.org:1337/announce
  • udp://tracker.tiny-vps.com:6969/announce
  • udp://open.demonii.si:1337/announce
  • udp://tracker.torrent.eu.org:451/announce
  • udp://tracker.pirateparty.gr:6969/announce
  • udp://ipv4.tracker.harry.lu:80/announce
  • udp://tracker.cyberia.is:6969/announce
  • udp://9.rarbg.to:2710/announce
  • udp://denis.stalker.upeer.me:6969/announce
/08/e7/ff/08e7ffd6a1ad8052c7c702273b643766.js'>