The.100.S06E13.The.Blood.of.Sanctum.WEB-DL.XviD.B4ND1T69

  • Category TV
  • Type Divx/Xvid
  • Language English
  • Total size 386.7 MB
  • Uploaded By B4ND1T69
  • Downloads 179
  • Last checked 2 months ago
  • Date uploaded 2 months ago
  • Seeders 29
  • Leechers 5
80%
August 7, 2019, 3:00 am

The 100

Sanctum becomes a battleground between the devout and the non-believers. The mystery of the anomaly deepens.

Infohash : 26D0A93F8C927A6E8212F6DDC20B5DD3B391E1E5

The.100.S06E13.The.Blood.of.Sanctum.WEB-DL.XviD.B4ND1T69



Creator: Jason Rothenberg
Stars: Eliza Taylor, Bob Morley, Marie Avgeropoulos

Plot/Story:
The Blood of Sanctum
Sanctum becomes a battleground between the devout and the non-believers. The mystery of the anomaly deepens.

General
Complete name : The.100.S06E13.The.Blood.of.Sanctum.WEB-DL.XviD.B4ND1T69.avi
Format : AVI
Format/Info : Audio Video Interleave
File size : 387 MiB
Duration : 42 min 26 s
Overall bit rate : 1 274 kb/s
Subtitles : Yes...Included(HI)

Video
ID : 0
Format : MPEG-4 Visual
Format profile : Advanced [email protected]
Format settings, BVOP : 2
Format settings, QPel : No
Format settings, GMC : No warppoints
Format settings, Matrix : Default (H.263)
Codec ID : XVID
Codec ID/Hint : XviD
Duration : 42 min 26 s
Bit rate : 1 132 kb/s
Width : 640 pixels
Height : 360 pixels
Display aspect ratio : 16:9
Frame rate : 23.976 (24000/1001) FPS
Color space : YUV
Chroma subsampling : 4:2:0
Bit depth : 8 bits
Scan type : Progressive
Compression mode : Lossy
Bits/(Pixel*Frame) : 0.205
Stream size : 344 MiB (89%)
Writing library : XviD 64

Audio
ID : 1
Format : MPEG Audio
Format version : Version 1
Format profile : Layer 3
Codec ID : 55
Codec ID/Hint : MP3
Duration : 42 min 26 s
Bit rate mode : Constant
Bit rate : 128 kb/s
Channel(s) : 2 channels
Sampling rate : 48.0 kHz
Compression mode : Lossy
Stream size : 38.9 MiB (10%)
Alignment : Aligned on interleaves
Interleave, duration : 24 ms (0.58 video frame)

Screenshots:

https://i.imgur.com/pZ1fgdc.png
https://i.imgur.com/mFeGAuo.png
https://i.imgur.com/aoNctKH.png
https://i.imgur.com/Ui59iLP.png
https://i.imgur.com/gY3znxZ.png






Please Seed For As Long As Possible
Or At Least 1:1 Ratio...Thanks
Enjoy Peeps

Files:

The.100.S06E13.The.Blood.of.Sanctum.WEB-DL.XviD.B4ND1T69
  • 1337x text file.txt (0.1 KB)
  • KAT text file.txt (0.1 KB)
  • The.100.S06E13.The.Blood.of.Sanctum.WEB-DL.XviD.B4ND1T69.srt (39.9 KB)
  • The.100.S06E13.The.Blood.of.Sanctum.WEB-DL.XviD.B4ND1T69.avi (386.7 MB)

There are currently no comments. Feel free to leave one :)

Code:

  • udp://tracker.coppersurfer.tk:6969/announce
  • udp://tracker.pirateparty.gr:6969/announce
  • udp://tracker.opentrackr.org:1337/announce
  • udp://tracker.internetwarriors.net:1337/announce
  • udp://tracker.tiny-vps.com:6969/announce
  • udp://open.demonii.si:1337/announce
  • udp://tracker.torrent.eu.org:451/announce
  • udp://tracker.leechers-paradise.org:6969/announce
/08/e7/ff/08e7ffd6a1ad8052c7c702273b643766.js'>