Tolkien 2019 1080p BluRay x264 DTS 5.1 MSubS - Hon3yHD

  • Category Movies
  • Type HD
  • Language English
  • Total size 4.4 GB
  • Uploaded By Hon3yHD
  • Downloads 75
  • Last checked 1 month ago
  • Date uploaded 1 month ago
  • Seeders 4
  • Leechers 5

Tolkien

Drama

Explore the formative years of the orphaned author as he finds friendship, love and artistic inspiration among a group of fellow outcasts at school. This takes him into the outbreak of World War I, which threatens to tear the “fellowship” apart. All of these experiences would inspire Tolkien to write his famous Middle-Earth novels.

Infohash : 796DC2A76BDF1B8F0816C70241487C94882879FA




Tolkien 2019 1080p BluRay x264 DTS 5.1 MSubS - Hon3yHD

Source: BD50 @ Scene


Format : Matroska
Format version : Version 4 / Version 2
File size : 4.37 GiB
Duration : 1 h 51 min
Overall bit rate : 5 606 kb/s
Movie name : Tolkien 2019 - Hon3yHD
Encoded date : UTC 2019-08-08 10:54:12
Writing application : mkvmerge v35.0.0 ('All The Love In The World') 64-bit
Writing library : libebml v1.3.9 + libmatroska v1.5.2

Video
ID : 1
Format : AVC
Format/Info : Advanced Video Codec
Format profile : [email protected]
Format settings, CABAC : Yes
Format settings, ReFrames : 5 frames
Codec ID : V_MPEG4/ISO/AVC
Duration : 1 h 51 min
Bit rate : 4 835 kb/s
Width : 1 920 pixels
Height : 804 pixels
Display aspect ratio : 2.40:1
Frame rate mode : Constant
Frame rate : 23.976 (24000/1001) FPS
Color space : YUV
Chroma subsampling : 4:2:0
Bit depth : 8 bits
Scan type : Progressive
Bits/(Pixel*Frame) : 0.131
Stream size : 3.77 GiB (86%)
Writing library : x264 core 157 r2969 d4099dd
Encoding settings : cabac=1 / ref=5 / deblock=1:-1:-1 / analyse=0x3:0x133 / me=umh / subme=9 / psy=1 / psy_rd=1.00:0.15 / mixed_ref=1 / me_range=24 / chroma_me=1 / trellis=2 / 8x8dct=1 / cqm=0 / deadzone=21,11 / fast_pskip=0 / chroma_qp_offset=-3 / threads=12 / lookahead_threads=1 / sliced_threads=0 / nr=200 / decimate=1 / interlaced=0 / bluray_compat=0 / constrained_intra=0 / bframes=3 / b_pyramid=2 / b_adapt=2 / b_bias=0 / direct=3 / weightb=1 / open_gop=0 / weightp=2 / keyint=250 / keyint_min=23 / scenecut=40 / intra_refresh=0 / rc_lookahead=60 / rc=2pass / mbtree=1 / bitrate=4835 / ratetol=1.0 / qcomp=0.60 / qpmin=0 / qpmax=69 / qpstep=4 / cplxblur=20.0 / qblur=0.5 / ip_ratio=1.40 / aq=1:1.00
Language : English
Default : Yes
Forced : No
Color range : Limited
Color primaries : BT.709
Transfer characteristics : BT.709
Matrix coefficients : BT.709

Audio
ID : 2
Format : DTS
Format/Info : Digital Theater Systems
Mode : 16
Format settings, Endianness : Big
Codec ID : A_DTS
Duration : 1 h 51 min
Bit rate mode : Constant
Bit rate : 768 kb/s
Channel(s) : 6 channels
Channel positions : Front: L C R, Side: L R, LFE
Sampling rate : 48.0 kHz
Frame rate : 93.750 FPS (512 spf)
Bit depth : 24 bits
Compression mode : Lossy
Stream size : 614 MiB (14%)
Language : English
Default : Yes
Forced : No

Text #1
ID : 3
Format : UTF-8
Codec ID : S_TEXT/UTF8
Codec ID/Info : UTF-8 Plain Text
Duration : 1 h 43 min
Bit rate : 59 b/s
Count of elements : 1592
Stream size : 45.1 KiB (0%)
Language : English
Default : Yes
Forced : No

Text #2
ID : 4
Format : UTF-8
Codec ID : S_TEXT/UTF8
Codec ID/Info : UTF-8 Plain Text
Duration : 1 h 44 min
Bit rate : 67 b/s
Count of elements : 1757
Stream size : 51.5 KiB (0%)
Language : English
Default : No
Forced : No

Text #3
ID : 5
Format : UTF-8
Codec ID : S_TEXT/UTF8
Codec ID/Info : UTF-8 Plain Text
Duration : 1 h 44 min
Bit rate : 67 b/s
Count of elements : 1757
Stream size : 51.4 KiB (0%)
Language : English
Default : No
Forced : No

Text #4
ID : 6
Format : UTF-8
Codec ID : S_TEXT/UTF8
Codec ID/Info : UTF-8 Plain Text
Duration : 1 h 50 min
Bit rate : 53 b/s
Count of elements : 1282
Stream size : 43.5 KiB (0%)
Language : Spanish
Default : No
Forced : No

Text #5
ID : 7
Format : UTF-8
Codec ID : S_TEXT/UTF8
Codec ID/Info : UTF-8 Plain Text
Duration : 1 h 50 min
Bit rate : 51 b/s
Count of elements : 1393
Stream size : 41.3 KiB (0%)
Language : French
Default : No
Forced : No

Text #6
ID : 8
Format : UTF-8
Codec ID : S_TEXT/UTF8
Codec ID/Info : UTF-8 Plain Text
Duration : 1 h 50 min
Bit rate : 1 b/s
Count of elements : 33
Stream size : 1.20 KiB (0%)
Language : French
Default : No
Forced : No

Text #7
ID : 9
Format : UTF-8
Codec ID : S_TEXT/UTF8
Codec ID/Info : UTF-8 Plain Text
Duration : 1 h 50 min
Bit rate : 1 b/s
Count of elements : 33
Stream size : 1.20 KiB (0%)
Language : French
Default : No
Forced : No

Text #8
ID : 10
Format : UTF-8
Codec ID : S_TEXT/UTF8
Codec ID/Info : UTF-8 Plain Text
Duration : 1 h 45 min
Bit rate : 109 b/s
Count of elements : 2109
Stream size : 84.1 KiB (0%)
Language : English
Default : No
Forced : No

Text #9
ID : 11
Format : UTF-8
Codec ID : S_TEXT/UTF8
Codec ID/Info : UTF-8 Plain Text
Duration : 1 h 51 min
Bit rate : 89 b/s
Count of elements : 1740
Stream size : 73.4 KiB (0%)
Language : Spanish
Default : No
Forced : No

Text #10
ID : 12
Format : UTF-8
Codec ID : S_TEXT/UTF8
Codec ID/Info : UTF-8 Plain Text
Duration : 1 h 51 min
Bit rate : 100 b/s
Count of elements : 1738
Stream size : 81.9 KiB (0%)
Language : French
Default : No
Forced : No

Text #11
ID : 13
Format : UTF-8
Codec ID : S_TEXT/UTF8
Codec ID/Info : UTF-8 Plain Text
Duration : 1 h 46 min
Bit rate : 0 b/s
Count of elements : 7
Stream size : 174 Bytes (0%)
Language : Spanish
Default : No
Forced : No

Text #12
ID : 14
Format : UTF-8
Codec ID : S_TEXT/UTF8
Codec ID/Info : UTF-8 Plain Text
Duration : 1 h 46 min
Bit rate : 0 b/s
Count of elements : 7
Stream size : 174 Bytes (0%)
Language : Spanish
Default : No
Forced : No

Menu
00:00:00.000 : en:Chapter 01
00:06:27.136 : en:Chapter 02
00:11:09.418 : en:Chapter 03
00:15:50.741 : en:Chapter 04
00:21:00.884 : en:Chapter 05
00:25:53.802 : en:Chapter 06
00:34:35.031 : en:Chapter 07
00:37:46.264 : en:Chapter 08
00:42:01.227 : en:Chapter 09
00:44:44.139 : en:Chapter 10
00:47:39.773 : en:Chapter 11
00:52:04.913 : en:Chapter 12
00:57:06.297 : en:Chapter 13
00:59:59.804 : en:Chapter 14
01:04:39.333 : en:Chapter 15
01:08:08.834 : en:Chapter 16
01:11:17.398 : en:Chapter 17
01:14:29.089 : en:Chapter 18
01:19:45.655 : en:Chapter 19
01:26:09.539 : en:Chapter 20
01:32:11.984 : en:Chapter 21
01:35:52.913 : en:Chapter 22
01:40:05.290 : en:Chapter 23
01:45:06.091 : en:Chapter 24







Files:

Tolkien 2019 1080p BluRay x264 DTS 5.1 MSubS - Hon3yHD
  • Hon3yHD.com.txt (0.0 KB)
  • Torrent Seed By www.cyber-planet.in.txt (0.1 KB)
  • Sample.mkv (32.4 MB)
  • Tolkien 2019 1080p BluRay x264 DTS 5.1 MSubS - Hon3yHD.mkv (4.4 GB)

There are currently no comments. Feel free to leave one :)

Code:

  • udp://tracker.coppersurfer.tk:6969/announce
  • udp://tracker.leechers-paradise.org:6969/announce
  • udp://bt.xxx-tracker.com:2710/announce
  • udp://tracker.internetwarriors.net:1337/announce
  • udp://tracker.openbittorrent.com:80/announce
  • udp://explodie.org:6969/announce
  • udp://tracker.opentrackr.org:1337/announce
  • udp://tracker.tiny-vps.com:6969/announce
  • udp://open.demonii.si:1337/announce
  • udp://tracker.torrent.eu.org:451/announce
  • udp://tracker.pirateparty.gr:6969/announce
  • udp://ipv4.tracker.harry.lu:80/announce
  • udp://tracker.cyberia.is:6969/announce
  • udp://9.rarbg.to:2710/announce
  • udp://denis.stalker.upeer.me:6969/announce
/08/e7/ff/08e7ffd6a1ad8052c7c702273b643766.js'>