Sacred Games (2019) Hindi S02 720p NF HDRip x264 AAC 5.1 Esubs - ...

  • Category TV
  • Type HD
  • Language Hindi
  • Total size 3.6 GB
  • Uploaded By uploader6969
  • Downloads 473
  • Last checked 4 months ago
  • Date uploaded 4 months ago
  • Seeders 27
  • Leechers 65

Infohash : 91B1159382E1D7EC6EC5483DBDFC5A78E432188D

www.MoviePirate.club


Telegram Link



****************************
_____ _ _ 
|_ _|___ | || | _ _ 
| | / _ \| || || | | |
| || __/| || || |_| |
|_| \___||_||_| \__, |
|___/ 
****************************
Team Telly Proudly Presents
****************************
------------------
|Media Info|
------------------
Complete name                            : J:\Sacred Games (2019) Hindi S02 720p NF HDRip x264 AAC 5.1 Esubs - MoviePirate [Telly]\Sacred Games S02E01 Hindi - MoviePirate [Telly].mkv
Format                                   : Matroska
Format version                           : Version 4
File size                                : 494 MiB
Duration                                 : 56 min 18 s
Overall bit rate                         : 1 226 kb/s
Movie name                               : MoviePirate.Club
Encoded date                             : UTC 2019-08-15 05:43:16
Writing application                      : mkvmerge v35.0.0 ('All The Love In The World') 64-bit
Writing library                          : libebml v1.3.9 + libmatroska v1.5.2 / Lavf58.20.100
Video
ID                                       : 1
Format                                   : AVC
Format/Info                              : Advanced Video Codec
Format profile                           : [email protected]
Format settings                          : CABAC / 5 Ref Frames
Format settings, CABAC                   : Yes
Format settings, Reference frames        : 5 frames
Codec ID                                 : V_MPEG4/ISO/AVC
Duration                                 : 56 min 16 s
Bit rate                                 : 1 050 kb/s
Width                                    : 1 280 pixels
Height                                   : 640 pixels
Display aspect ratio                     : 2.000
Frame rate mode                          : Constant
Frame rate                               : 25.000 FPS
Color space                              : YUV
Chroma subsampling                       : 4:2:0
Bit depth                                : 8 bits
Scan type                                : Progressive
Bits/(Pixel*Frame)                       : 0.051
Stream size                              : 416 MiB (84%)
Title                                    : MoviePirate.Club
Writing library                          : x264 core 157 r2935 545de2f
Encoding settings                        : cabac=1 / ref=5 / deblock=1:0:0 / analyse=0x1:0x111 / me=hex / subme=8 / psy=1 / psy_rd=1.00:0.00 / mixed_ref=1 / me_range=16 / chroma_me=1 / trellis=2 / 8x8dct=0 / cqm=0 / deadzone=21,11 / fast_pskip=1 / chroma_qp_offset=-2 / threads=20 / lookahead_threads=3 / sliced_threads=0 / nr=0 / decimate=1 / interlaced=0 / bluray_compat=0 / constrained_intra=0 / bframes=3 / b_pyramid=2 / b_adapt=1 / b_bias=0 / direct=3 / weightb=1 / open_gop=0 / weightp=2 / keyint=250 / keyint_min=25 / scenecut=40 / intra_refresh=0 / rc_lookahead=50 / rc=abr / mbtree=1 / bitrate=1050 / ratetol=1.0 / qcomp=0.60 / qpmin=0 / qpmax=69 / qpstep=4 / vbv_maxrate=50000 / vbv_bufsize=62500 / nal_hrd=none / filler=0 / ip_ratio=1.40 / aq=1:1.00
Default                                  : Yes
Forced                                   : No
Color range                              : Limited
Color primaries                          : BT.709
Transfer characteristics                 : BT.709
Matrix coefficients                      : BT.709
Audio
ID                                       : 2
Format                                   : AAC LC
Format/Info                              : Advanced Audio Codec Low Complexity
Codec ID                                 : A_AAC-2
Duration                                 : 56 min 18 s
Bit rate                                 : 192 kb/s
Channel(s)                               : 6 channels
Channel layout                           : C L R Ls Rs LFE
Sampling rate                            : 48.0 kHz
Frame rate                               : 46.875 FPS (1024 SPF)
Compression mode                         : Lossy
Delay relative to video                  : -21 ms
Stream size                              : 76.6 MiB (16%)
Title                                    : MoviePirate.Club
Language                                 : Hindi
Default                                  : No
Forced                                   : No
Text #1
ID                                       : 3
Format                                   : ASS
Codec ID                                 : S_TEXT/ASS
Codec ID/Info                            : Advanced Sub Station Alpha
Duration                                 : 50 min 40 s
Bit rate                                 : 80 b/s
Count of elements                        : 609
Compression mode                         : Lossless
Stream size                              : 29.8 KiB (0%)
Title                                    : MoviePirate.Club
Language                                 : English
Default                                  : No
Forced                                   : No
Text #2
ID                                       : 4
Format                                   : ASS
Codec ID                                 : S_TEXT/ASS
Codec ID/Info                            : Advanced Sub Station Alpha
Duration                                 : 51 min 16 s
Bit rate                                 : 101 b/s
Count of elements                        : 718
Compression mode                         : Lossless
Stream size                              : 38.1 KiB (0%)
Title                                    : MoviePirate.Club
Language                                 : English
Default                                  : No
Forced                                   : No
****************************
Tellytorrent.net 
Team Telly Official Site
****************************
www.MoviePirate.club
Enjoy Exclusives Content only on TellyTorrent.net





Files:

Sacred Games (2019) Hindi S02 720p NF HDRip x264 AAC 5.1 Esubs - MoviePirate [Telly]
  • Sacred Games S02E08 Hindi - MoviePirate [Telly].mkv (520.5 MB)
  • Sacred Games S02E02 Hindi - MoviePirate [Telly].mkv (427.8 MB)
  • Sacred Games S02E03 Hindi - MoviePirate [Telly].mkv (466.8 MB)
  • Sacred Games S02E04 Hindi - MoviePirate [Telly].mkv (481.7 MB)
  • Sacred Games S02E05 Hindi - MoviePirate [Telly].mkv (433.0 MB)
  • Sacred Games S02E06 Hindi - MoviePirate [Telly].mkv (362.6 MB)
  • Sacred Games S02E07 Hindi - MoviePirate [Telly].mkv (489.8 MB)
  • Sacred Games S02E01 Hindi - MoviePirate [Telly].mkv (493.6 MB)

There are currently no comments. Feel free to leave one :)

Code:

  • udp://tracker.opentrackr.org:1337/announce
  • http://tracker1.itzmx.com:8080/announce
  • http://tracker3.itzmx.com:6961/announce
  • udp://open.demonii.si:1337/announce
  • udp://tracker.tiny-vps.com:6969/announce
  • udp://thetracker.org:80/announce
  • udp://open.stealth.si:80/announce
  • udp://bt.firebit.co.uk:6969/announce
  • udp://tracker.leechers-paradise.org:6969/announce
  • udp://9.rarbg.to:2710/announce
  • udp://9.rarbg.me:2710/announce
  • udp://9.rarbg.com:2710/announce
  • udp://9.rarbg.me:2730/announce
  • udp://tracker.internetwarriors.net:1337/announce
  • http://tracker.electro-torrent.pl:80/announce
/08/e7/ff/08e7ffd6a1ad8052c7c702273b643766.js'>