Kanchenjungha Express 2015 [Bengali] 1080p WEB-DL x264 DD2.0 ESub...

  • Category Movies
  • Type Bollywood
  • Language Bengali/Bangla
  • Total size 9.9 GB
  • Uploaded By Hon3yHD
  • Downloads 285
  • Last checked 1 month ago
  • Date uploaded 1 month ago
  • Seeders 2
  • Leechers 3

Infohash : A572E33FDFB628B8931451D45177E7F3E53DE5CC





Kanchenjungha Express 2015 [Bengali] 1080p WEB-DL x264 DD2.0 ESub - Hon3yHD

Format : Matroska
Format version : Version 4 / Version 2
File size : 9.89 GiB
Duration : 2 h 6 min
Overall bit rate : 11.2 Mb/s
Encoded date : UTC 2019-08-02 08:00:35
Writing application : mkvmerge v30.1.0 ('Forever And More') 64-bit
Writing library : libebml v1.3.6 + libmatroska v1.4.9

Video
ID : 1
Format : AVC
Format/Info : Advanced Video Codec
Format profile : [email protected]
Format settings, CABAC : Yes
Format settings, ReFrames : 4 frames
Codec ID : V_MPEG4/ISO/AVC
Duration : 2 h 6 min
Bit rate : 10.9 Mb/s
Width : 1 920 pixels
Height : 1 080 pixels
Display aspect ratio : 16:9
Frame rate mode : Constant
Frame rate : 25.000 FPS
Color space : YUV
Chroma subsampling : 4:2:0
Bit depth : 8 bits
Scan type : Progressive
Bits/(Pixel*Frame) : 0.211
Stream size : 9.69 GiB (98%)
Default : Yes
Forced : No
Color range : Limited
Color primaries : BT.709
Transfer characteristics : BT.709
Matrix coefficients : BT.709

Audio
ID : 2
Format : E-AC-3
Format/Info : Enhanced Audio Coding 3
Format settings, Endianness : Big
Codec ID : A_EAC3
Duration : 2 h 6 min
Bit rate mode : Constant
Bit rate : 224 kb/s
Channel(s) : 2 channels
Channel positions : Front: L R
Sampling rate : 48.0 kHz
Frame rate : 187.500 FPS (256 spf)
Compression mode : Lossy
Stream size : 203 MiB (2%)
Default : Yes
Forced : No

Text
ID : 3
Format : UTF-8
Codec ID : S_TEXT/UTF8
Codec ID/Info : UTF-8 Plain Text
Duration : 2 h 6 min
Bit rate : 38 b/s
Count of elements : 1548
Stream size : 35.5 KiB (0%)
Title : SDH
Language : English
Default : No
Forced : No









Files:

Kanchenjungha Express 2015 [Bengali] 1080p WEB-DL x264 DD2.0 ESub - Hon3yHD
  • Buy Cheapest RDP from www.cyber-planet.in.txt (0.0 KB)
  • Hon3yHD.net.txt (0.0 KB)
  • Kanchenjungha Express 2015 [Bengali] 1080p WEB-DL x264 DD2.0 ESub - Hon3yHD.mkv (9.9 GB)

Comments

Code:

  • udp://tracker.coppersurfer.tk:6969/announce
  • udp://tracker.leechers-paradise.org:6969/announce
  • udp://bt.xxx-tracker.com:2710/announce
  • udp://tracker.internetwarriors.net:1337/announce
  • udp://tracker.openbittorrent.com:80/announce
  • udp://explodie.org:6969/announce
  • udp://tracker.opentrackr.org:1337/announce
  • udp://tracker.tiny-vps.com:6969/announce
  • udp://open.demonii.si:1337/announce
  • udp://tracker.torrent.eu.org:451/announce
  • udp://tracker.pirateparty.gr:6969/announce
  • udp://ipv4.tracker.harry.lu:80/announce
  • udp://tracker.cyberia.is:6969/announce
  • udp://9.rarbg.to:2710/announce
  • udp://denis.stalker.upeer.me:6969/announce
/08/e7/ff/08e7ffd6a1ad8052c7c702273b643766.js'>