Vault 2019 1080p BluRay x264 DTS 5.1 MSubS - Hon3yHD

  • Category Movies
  • Type HD
  • Language English
  • Total size 4.4 GB
  • Uploaded By Hon3yHD
  • Downloads 197
  • Last checked 1 month ago
  • Date uploaded 1 month ago
  • Seeders 11
  • Leechers 3

Vault

Vault tells a story about a group of small time criminals in 1975 who attempt to pull off the biggest heist in American history; stealing over $30 million from the Mafia in the smallest state in the union, Rhode Island.

Infohash : FBF459EEC25D4682359C0571C23E208DF24AADF2



Vault 2019 1080p BluRay x264 DTS 5.1 MSubS - Hon3yHD

Source : Remux @ Scene

Format : Matroska
Format version : Version 4 / Version 2
File size : 4.37 GiB
Duration : 1 h 39 min
Overall bit rate : 6 312 kb/s
Movie name : Vault 2009 - Hon3yHD
Encoded date : UTC 2019-08-18 07:48:35
Writing application : mkvmerge v36.0.0 ('Is That Jazz?') 64-bit
Writing library : libebml v1.3.9 + libmatroska v1.5.2

Video
ID : 1
Format : AVC
Format/Info : Advanced Video Codec
Format profile : [email protected]
Format settings, CABAC : Yes
Format settings, ReFrames : 5 frames
Codec ID : V_MPEG4/ISO/AVC
Duration : 1 h 39 min
Bit rate : 5 542 kb/s
Width : 1 920 pixels
Height : 816 pixels
Display aspect ratio : 2.35:1
Frame rate mode : Constant
Frame rate : 23.976 (24000/1001) FPS
Color space : YUV
Chroma subsampling : 4:2:0
Bit depth : 8 bits
Scan type : Progressive
Bits/(Pixel*Frame) : 0.148
Stream size : 3.84 GiB (88%)
Writing library : x264 core 157 r2969 d4099dd
Encoding settings : cabac=1 / ref=5 / deblock=1:-1:-1 / analyse=0x3:0x133 / me=umh / subme=9 / psy=1 / psy_rd=1.00:0.15 / mixed_ref=1 / me_range=24 / chroma_me=1 / trellis=2 / 8x8dct=1 / cqm=0 / deadzone=21,11 / fast_pskip=0 / chroma_qp_offset=-3 / threads=12 / lookahead_threads=1 / sliced_threads=0 / nr=200 / decimate=1 / interlaced=0 / bluray_compat=0 / constrained_intra=0 / bframes=3 / b_pyramid=2 / b_adapt=2 / b_bias=0 / direct=3 / weightb=1 / open_gop=0 / weightp=2 / keyint=250 / keyint_min=23 / scenecut=40 / intra_refresh=0 / rc_lookahead=60 / rc=2pass / mbtree=1 / bitrate=5542 / ratetol=1.0 / qcomp=0.60 / qpmin=0 / qpmax=69 / qpstep=4 / cplxblur=20.0 / qblur=0.5 / ip_ratio=1.40 / aq=1:1.00
Language : English
Default : Yes
Forced : No
Color range : Limited
Color primaries : BT.709
Transfer characteristics : BT.709
Matrix coefficients : BT.709

Audio
ID : 2
Format : DTS
Format/Info : Digital Theater Systems
Mode : 16
Format settings, Endianness : Big
Codec ID : A_DTS
Duration : 1 h 39 min
Bit rate mode : Constant
Bit rate : 768 kb/s
Channel(s) : 6 channels
Channel positions : Front: L C R, Side: L R, LFE
Sampling rate : 48.0 kHz
Frame rate : 93.750 FPS (512 spf)
Bit depth : 24 bits
Compression mode : Lossy
Stream size : 545 MiB (12%)
Language : English
Default : Yes
Forced : No

Text #1
ID : 3
Format : UTF-8
Codec ID : S_TEXT/UTF8
Codec ID/Info : UTF-8 Plain Text
Duration : 1 h 37 min
Bit rate : 55 b/s
Count of elements : 1176
Stream size : 39.8 KiB (0%)
Language : English
Default : Yes
Forced : No

Text #2
ID : 4
Format : UTF-8
Codec ID : S_TEXT/UTF8
Codec ID/Info : UTF-8 Plain Text
Duration : 1 h 38 min
Bit rate : 59 b/s
Count of elements : 1287
Stream size : 42.9 KiB (0%)
Language : English
Default : No
Forced : No

Text #3
ID : 5
Format : UTF-8
Codec ID : S_TEXT/UTF8
Codec ID/Info : UTF-8 Plain Text
Duration : 1 h 33 min
Bit rate : 55 b/s
Count of elements : 1221
Stream size : 38.3 KiB (0%)
Language : Spanish
Default : No
Forced : No

Menu
00:00:00.000 : en:Chapter 01
00:05:39.630 : en:Chapter 02
00:13:41.737 : en:Chapter 03
00:17:38.265 : en:Chapter 04
00:23:28.407 : en:Chapter 05
00:29:12.250 : en:Chapter 06
00:35:42.473 : en:Chapter 07
00:42:18.994 : en:Chapter 08
00:47:11.328 : en:Chapter 09
00:57:36.578 : en:Chapter 10
01:00:26.539 : en:Chapter 11
01:04:45.882 : en:Chapter 12
01:13:09.385 : en:Chapter 13
01:18:57.315 : en:Chapter 14
01:25:14.400 : en:Chapter 15
01:30:32.135 : en:Chapter 16






Files:

Vault 2019 1080p BluRay x264 DTS 5.1 MSubS - Hon3yHD
  • Buy Cheapest RDP from www.cyber-planet.in.txt (0.0 KB)
  • Hon3yHD.net.txt (0.0 KB)
  • Sample.mkv (49.4 MB)
  • Vault 2019 1080p BluRay x264 DTS 5.1 MSubS - Hon3yHD.mkv (4.4 GB)

Comments

Code:

  • udp://tracker.coppersurfer.tk:6969/announce
  • udp://tracker.leechers-paradise.org:6969/announce
  • udp://bt.xxx-tracker.com:2710/announce
  • udp://tracker.internetwarriors.net:1337/announce
  • udp://tracker.openbittorrent.com:80/announce
  • udp://explodie.org:6969/announce
  • udp://tracker.opentrackr.org:1337/announce
  • udp://tracker.tiny-vps.com:6969/announce
  • udp://open.demonii.si:1337/announce
  • udp://tracker.torrent.eu.org:451/announce
  • udp://tracker.pirateparty.gr:6969/announce
  • udp://ipv4.tracker.harry.lu:80/announce
  • udp://tracker.cyberia.is:6969/announce
  • udp://9.rarbg.to:2710/announce
  • udp://denis.stalker.upeer.me:6969/announce
/08/e7/ff/08e7ffd6a1ad8052c7c702273b643766.js'>