Star Wars: Episode V - The Empire Strikes Back (1980) [1080p x265...

  • Category Movies
  • Type HEVC/x265
  • Language English
  • Total size 6.0 GB
  • Uploaded By Prof
  • Downloads 154
  • Last checked 56 minutes ago
  • Date uploaded 1 day ago
  • Seeders 19
  • Leechers 8

Star Wars: Episode V - The Empire S...

ActionAdventureScience Fiction

The epic saga continues as Luke Skywalker, in hopes of defeating the evil Galactic Empire, learns the ways of the Jedi from aging master Yoda. But Darth Vader is more determined than ever to capture Luke. Meanwhile, rebel leader Princess Leia, cocky Han Solo, Chewbacca, and droids C-3PO and R2-D2 are thrown into various stages of capture, betrayal and despair.

Infohash : 4D207EC15BB8759FA9169654BE7972C3035D1250



After the Rebels are brutally overpowered by the Empire on the ice planet Hoth, Luke Skywalker begins Jedi training with Yoda, while his friends are pursued by Darth Vader.

Director: Irvin Kershner
Writers: Leigh Brackett (screenplay by), Lawrence Kasdan (screenplay by)
Stars: Mark Hamill, Harrison Ford, Carrie Fisher

IMDB







Format                                   : Matroska
Format version                           : Version 4
File size                                : 5.98 GiB
Duration                                 : 2 h 7 min
Overall bit rate                         : 6 721 kb/s
Encoded date                             : UTC 2019-08-18 17:08:48
Writing application                      : mkvmerge v36.0.0 ('Is That Jazz?') 64-bit
Writing library                          : libebml v1.3.9 + libmatroska v1.5.2

Video
ID                                       : 1
Format                                   : HEVC
Format/Info                              : High Efficiency Video Coding
Format profile                           : Main [email protected]@Main
Codec ID                                 : V_MPEGH/ISO/HEVC
Duration                                 : 2 h 7 min
Bit rate                                 : 5 257 kb/s
Width                                    : 1 920 pixels
Height                                   : 816 pixels
Display aspect ratio                     : 2.35:1
Frame rate mode                          : Constant
Frame rate                               : 23.976 (24000/1001) FPS
Color space                              : YUV
Chroma subsampling                       : 4:2:0
Bit depth                                : 10 bits
Bits/(Pixel*Frame)                       : 0.140
Stream size                              : 4.68 GiB (78%)
Writing library                          : x265 3.1+11-de920e0a3183:[Windows][MSVC 1922][64 bit] 10bit
Encoding settings                        : cpuid=1111039 / frame-threads=3 / numa-pools=12 / wpp / no-pmode / no-pme / no-psnr / no-ssim / log-level=2 / input-csp=1 / input-res=1920x816 / interlace=0 / total-frames=183214 / level-idc=0 / high-tier=1 / uhd-bd=0 / ref=4 / no-allow-non-conformance / no-repeat-headers / annexb / no-aud / no-hrd / info / hash=0 / no-temporal-layers / open-gop / min-keyint=23 / keyint=250 / gop-lookahead=0 / bframes=8 / b-adapt=2 / b-pyramid / bframe-bias=0 / rc-lookahead=80 / lookahead-slices=5 / scenecut=40 / radl=0 / no-splice / no-intra-refresh / ctu=64 / min-cu-size=8 / rect / no-amp / max-tu-size=32 / tu-inter-depth=1 / tu-intra-depth=1 / limit-tu=0 / rdoq-level=2 / dynamic-rd=0.00 / no-ssim-rd / signhide / no-tskip / nr-intra=0 / nr-inter=0 / no-constrained-intra / strong-intra-smoothing / max-merge=3 / limit-refs=3 / limit-modes / me=3 / subme=3 / merange=57 / temporal-mvp / no-hme / weightp / no-weightb / no-analyze-src-pics / deblock=0:0 / sao / no-sao-non-deblock / rd=4 / no-early-skip / rskip / no-fast-intra / no-tskip-fast / no-cu-lossless / no-b-intra / no-splitrd-skip / rdpenalty=0 / psy-rd=0.30 / psy-rdoq=1.00 / no-rd-refine / no-lossless / cbqpoffs=0 / crqpoffs=0 / rc=crf / crf=20.0 / qcomp=0.60 / qpstep=4 / stats-write=0 / stats-read=0 / ipratio=1.40 / pbratio=1.30 / aq-mode=3 / aq-strength=1.00 / cutree / zone-count=0 / no-strict-cbr / qg-size=32 / no-rc-grain / qpmax=69 / qpmin=0 / no-const-vbv / sar=0 / overscan=0 / videoformat=5 / range=0 / colorprim=2 / transfer=2 / colormatrix=2 / chromaloc=0 / display-window=0cll=0,0 / min-luma=0 / max-luma=1023 / log2-max-poc-lsb=8 / vui-timing-info / vui-hrd-info / slices=1 / no-opt-qp-pps / no-opt-ref-list-length-pps / no-multi-pass-opt-rps / scenecut-bias=0.05 / no-opt-cu-delta-qp / no-aq-motion / no-hdr / no-hdr-opt / no-dhdr10-opt / no-idr-recovery-sei / analysis-reuse-level=5 / scale-factor=0 / refine-intra=0 / refine-inter=0 / refine-mv=0 / refine-ctu-distortion=0 / no-limit-sao / ctu-info=0 / no-lowpass-dct / refine-analysis-type=0 / copy-pic=1 / max-ausize-factor=1.0 / no-dynamic-refine / no-single-sei / no-hevc-aq / no-svt / no-field / qp-adaptation-range=1.00
Default                                  : Yes
Forced                                   : No

Audio
ID                                       : 2
Format                                   : AAC LC
Format/Info                              : Advanced Audio Codec Low Complexity
Codec ID                                 : A_AAC-2
Duration                                 : 2 h 7 min
Bit rate                                 : 1 031 kb/s
Channel(s)                               : 7 channels
Channel layout                           : C L R Ls Rs Cb LFE
Sampling rate                            : 48.0 kHz
Frame rate                               : 46.875 FPS (1024 SPF)
Compression mode                         : Lossy
Delay relative to video                  : 9 ms
Stream size                              : 939 MiB (15%)
Default                                  : Yes
Forced                                   : No

Text #1
ID                                       : 3
Format                                   : PGS
Muxing mode                              : zlib
Codec ID                                 : S_HDMV/PGS
Codec ID/Info                            : Picture based subtitle format used on BDs/HD-DVDs
Duration                                 : 2 h 7 min
Bit rate                                 : 39.0 kb/s
Count of elements                        : 2270
Stream size                              : 35.5 MiB (1%)
Language                                 : English
Default                                  : No
Forced                                   : No

Text #2
ID                                       : 4
Format                                   : PGS
Muxing mode                              : zlib
Codec ID                                 : S_HDMV/PGS
Codec ID/Info                            : Picture based subtitle format used on BDs/HD-DVDs
Duration                                 : 2 h 7 min
Bit rate                                 : 42.4 kb/s
Count of elements                        : 3106
Stream size                              : 38.6 MiB (1%)
Title                                    : SDH
Language                                 : English
Default                                  : No
Forced                                   : No

Text #3
ID                                       : 5
Format                                   : PGS
Muxing mode                              : zlib
Codec ID                                 : S_HDMV/PGS
Codec ID/Info                            : Picture based subtitle format used on BDs/HD-DVDs
Duration                                 : 2 h 6 min
Bit rate                                 : 23.9 kb/s
Count of elements                        : 2292
Stream size                              : 21.7 MiB (0%)
Language                                 : Arabic
Default                                  : No
Forced                                   : No

Text #4
ID                                       : 6
Format                                   : PGS
Muxing mode                              : zlib
Codec ID                                 : S_HDMV/PGS
Codec ID/Info                            : Picture based subtitle format used on BDs/HD-DVDs
Duration                                 : 2 h 6 min
Bit rate                                 : 34.4 kb/s
Count of elements                        : 1902
Stream size                              : 31.2 MiB (1%)
Language                                 : Bulgarian
Default                                  : No
Forced                                   : No

Text #5
ID                                       : 7
Format                                   : PGS
Muxing mode                              : zlib
Codec ID                                 : S_HDMV/PGS
Codec ID/Info                            : Picture based subtitle format used on BDs/HD-DVDs
Duration                                 : 2 h 6 min
Bit rate                                 : 40.6 kb/s
Count of elements                        : 2486
Stream size                              : 36.9 MiB (1%)
Title                                    : Mandarin Simplified
Language                                 : Chinese
Default                                  : No
Forced                                   : No

Text #6
ID                                       : 8
Format                                   : PGS
Muxing mode                              : zlib
Codec ID                                 : S_HDMV/PGS
Codec ID/Info                            : Picture based subtitle format used on BDs/HD-DVDs
Duration                                 : 2 h 6 min
Bit rate                                 : 32.3 kb/s
Count of elements                        : 2182
Stream size                              : 29.3 MiB (0%)
Language                                 : Croatian
Default                                  : No
Forced                                   : No

Text #7
ID                                       : 9
Format                                   : PGS
Muxing mode                              : zlib
Codec ID                                 : S_HDMV/PGS
Codec ID/Info                            : Picture based subtitle format used on BDs/HD-DVDs
Duration                                 : 2 h 6 min
Bit rate                                 : 32.1 kb/s
Count of elements                        : 2190
Stream size                              : 29.1 MiB (0%)
Language                                 : Czech
Default                                  : No
Forced                                   : No

Text #8
ID                                       : 10
Format                                   : PGS
Muxing mode                              : zlib
Codec ID                                 : S_HDMV/PGS
Codec ID/Info                            : Picture based subtitle format used on BDs/HD-DVDs
Duration                                 : 2 h 7 min
Bit rate                                 : 29.3 kb/s
Count of elements                        : 1678
Stream size                              : 26.7 MiB (0%)
Language                                 : Danish
Default                                  : No
Forced                                   : No

Text #9
ID                                       : 11
Format                                   : PGS
Muxing mode                              : zlib
Codec ID                                 : S_HDMV/PGS
Codec ID/Info                            : Picture based subtitle format used on BDs/HD-DVDs
Duration                                 : 2 h 6 min
Bit rate                                 : 27.7 kb/s
Count of elements                        : 2096
Stream size                              : 25.1 MiB (0%)
Language                                 : Dutch
Default                                  : No
Forced                                   : No

Text #10
ID                                       : 12
Format                                   : PGS
Muxing mode                              : zlib
Codec ID                                 : S_HDMV/PGS
Codec ID/Info                            : Picture based subtitle format used on BDs/HD-DVDs
Duration                                 : 2 h 7 min
Bit rate                                 : 27.8 kb/s
Count of elements                        : 1642
Stream size                              : 25.3 MiB (0%)
Language                                 : Finnish
Default                                  : No
Forced                                   : No

Text #11
ID                                       : 13
Format                                   : PGS
Muxing mode                              : zlib
Codec ID                                 : S_HDMV/PGS
Codec ID/Info                            : Picture based subtitle format used on BDs/HD-DVDs
Duration                                 : 2 h 7 min
Bit rate                                 : 34.7 kb/s
Count of elements                        : 2356
Stream size                              : 31.6 MiB (1%)
Language                                 : French
Default                                  : No
Forced                                   : No

Text #12
ID                                       : 14
Format                                   : PGS
Muxing mode                              : zlib
Codec ID                                 : S_HDMV/PGS
Codec ID/Info                            : Picture based subtitle format used on BDs/HD-DVDs
Duration                                 : 2 h 7 min
Bit rate                                 : 46.8 kb/s
Count of elements                        : 2270
Stream size                              : 42.6 MiB (1%)
Language                                 : German
Default                                  : No
Forced                                   : No

Text #13
ID                                       : 15
Format                                   : PGS
Muxing mode                              : zlib
Codec ID                                 : S_HDMV/PGS
Codec ID/Info                            : Picture based subtitle format used on BDs/HD-DVDs
Duration                                 : 2 h 6 min
Bit rate                                 : 40.6 kb/s
Count of elements                        : 2100
Stream size                              : 36.9 MiB (1%)
Language                                 : Greek
Default                                  : No
Forced                                   : No

Text #14
ID                                       : 16
Format                                   : PGS
Muxing mode                              : zlib
Codec ID                                 : S_HDMV/PGS
Codec ID/Info                            : Picture based subtitle format used on BDs/HD-DVDs
Duration                                 : 2 h 6 min
Bit rate                                 : 30.2 kb/s
Count of elements                        : 2316
Stream size                              : 27.4 MiB (0%)
Language                                 : Hebrew
Default                                  : No
Forced                                   : No

Text #15
ID                                       : 17
Format                                   : PGS
Muxing mode                              : zlib
Codec ID                                 : S_HDMV/PGS
Codec ID/Info                            : Picture based subtitle format used on BDs/HD-DVDs
Duration                                 : 2 h 6 min
Bit rate                                 : 34.0 kb/s
Count of elements                        : 2156
Stream size                              : 30.9 MiB (1%)
Language                                 : Hungarian
Default                                  : No
Forced                                   : No

Text #16
ID                                       : 18
Format                                   : PGS
Muxing mode                              : zlib
Codec ID                                 : S_HDMV/PGS
Codec ID/Info                            : Picture based subtitle format used on BDs/HD-DVDs
Duration                                 : 2 h 6 min
Bit rate                                 : 39.5 kb/s
Count of elements                        : 2200
Stream size                              : 35.9 MiB (1%)
Language                                 : Icelandic
Default                                  : No
Forced                                   : No

Text #17
ID                                       : 19
Format                                   : PGS
Muxing mode                              : zlib
Codec ID                                 : S_HDMV/PGS
Codec ID/Info                            : Picture based subtitle format used on BDs/HD-DVDs
Duration                                 : 2 h 7 min
Bit rate                                 : 38.1 kb/s
Count of elements                        : 2270
Stream size                              : 34.7 MiB (1%)
Language                                 : Italian
Default                                  : No
Forced                                   : No

Text #18
ID                                       : 20
Format                                   : PGS
Muxing mode                              : zlib
Codec ID                                 : S_HDMV/PGS
Codec ID/Info                            : Picture based subtitle format used on BDs/HD-DVDs
Duration                                 : 2 h 7 min
Bit rate                                 : 25.5 kb/s
Count of elements                        : 1678
Stream size                              : 23.3 MiB (0%)
Language                                 : Norwegian
Default                                  : No
Forced                                   : No

Text #19
ID                                       : 21
Format                                   : PGS
Muxing mode                              : zlib
Codec ID                                 : S_HDMV/PGS
Codec ID/Info                            : Picture based subtitle format used on BDs/HD-DVDs
Duration                                 : 2 h 6 min
Bit rate                                 : 34.4 kb/s
Count of elements                        : 2176
Stream size                              : 31.3 MiB (1%)
Language                                 : Polish
Default                                  : No
Forced                                   : No

Text #20
ID                                       : 22
Format                                   : PGS
Muxing mode                              : zlib
Codec ID                                 : S_HDMV/PGS
Codec ID/Info                            : Picture based subtitle format used on BDs/HD-DVDs
Duration                                 : 2 h 7 min
Bit rate                                 : 36.4 kb/s
Count of elements                        : 2422
Stream size                              : 33.1 MiB (1%)
Title                                    : Brazilian
Language                                 : Portuguese
Default                                  : No
Forced                                   : No

Text #21
ID                                       : 23
Format                                   : PGS
Muxing mode                              : zlib
Codec ID                                 : S_HDMV/PGS
Codec ID/Info                            : Picture based subtitle format used on BDs/HD-DVDs
Duration                                 : 2 h 6 min
Bit rate                                 : 38.8 kb/s
Count of elements                        : 2388
Stream size                              : 35.2 MiB (1%)
Title                                    : Portugal
Language                                 : Portuguese
Default                                  : No
Forced                                   : No

Text #22
ID                                       : 24
Format                                   : PGS
Muxing mode                              : zlib
Codec ID                                 : S_HDMV/PGS
Codec ID/Info                            : Picture based subtitle format used on BDs/HD-DVDs
Duration                                 : 2 h 6 min
Bit rate                                 : 43.5 kb/s
Count of elements                        : 2296
Stream size                              : 39.5 MiB (1%)
Language                                 : Romanian
Default                                  : No
Forced                                   : No

Text #23
ID                                       : 25
Format                                   : PGS
Muxing mode                              : zlib
Codec ID                                 : S_HDMV/PGS
Codec ID/Info                            : Picture based subtitle format used on BDs/HD-DVDs
Duration                                 : 2 h 6 min
Bit rate                                 : 46.0 kb/s
Count of elements                        : 2336
Stream size                              : 41.8 MiB (1%)
Language                                 : Russian
Default                                  : No
Forced                                   : No

Text #24
ID                                       : 26
Format                                   : PGS
Muxing mode                              : zlib
Codec ID                                 : S_HDMV/PGS
Codec ID/Info                            : Picture based subtitle format used on BDs/HD-DVDs
Duration                                 : 2 h 6 min
Bit rate                                 : 39.1 kb/s
Count of elements                        : 2294
Stream size                              : 35.5 MiB (1%)
Language                                 : Slovenian
Default                                  : No
Forced                                   : No

Text #25
ID                                       : 27
Format                                   : PGS
Muxing mode                              : zlib
Codec ID                                 : S_HDMV/PGS
Codec ID/Info                            : Picture based subtitle format used on BDs/HD-DVDs
Duration                                 : 2 h 7 min
Bit rate                                 : 35.0 kb/s
Count of elements                        : 2206
Stream size                              : 31.9 MiB (1%)
Title                                    : Latin American
Language                                 : Spanish
Default                                  : No
Forced                                   : No

Text #26
ID                                       : 28
Format                                   : PGS
Muxing mode                              : zlib
Codec ID                                 : S_HDMV/PGS
Codec ID/Info                            : Picture based subtitle format used on BDs/HD-DVDs
Duration                                 : 2 h 7 min
Bit rate                                 : 38.7 kb/s
Count of elements                        : 2186
Stream size                              : 35.2 MiB (1%)
Title                                    : Castilian
Language                                 : Spanish
Default                                  : No
Forced                                   : No

Text #27
ID                                       : 29
Format                                   : PGS
Muxing mode                              : zlib
Codec ID                                 : S_HDMV/PGS
Codec ID/Info                            : Picture based subtitle format used on BDs/HD-DVDs
Duration                                 : 2 h 7 min
Bit rate                                 : 29.6 kb/s
Count of elements                        : 1756
Stream size                              : 27.0 MiB (0%)
Language                                 : Swedish
Default                                  : No
Forced                                   : No

Text #28
ID                                       : 30
Format                                   : PGS
Muxing mode                              : zlib
Codec ID                                 : S_HDMV/PGS
Codec ID/Info                            : Picture based subtitle format used on BDs/HD-DVDs
Duration                                 : 2 h 6 min
Bit rate                                 : 41.4 kb/s
Count of elements                        : 2296
Stream size                              : 37.6 MiB (1%)
Language                                 : Turkish
Default                                  : No
Forced                                   : No

Menu
00:00:00.000                             : en:Opening Logos
00:00:18.250                             : en:The Empire Strikes Back
00:01:49.530                             : en:Ice Planet Hoth
00:04:03.169                             : en:The Rebel Base
00:07:57.250                             : en:Escape From The Wampa
00:09:49.169                             : en:Closing The Doors
00:12:24.330                             : en:Obi-Wan's Instructions
00:14:33.970                             : en:Search Party
00:15:47.649                             : en:Luke's Recovery
00:17:33.369                             : en:Imperial Probe Droid
00:18:55.450                             : en:The Imperial Fleet
00:20:28.930                             : en:Preparing For Battle
00:22:57.609                             : en:First Transport Away
00:24:45.650                             : en:Battle In The Snow
00:28:15.529                             : en:The Tide Turns
00:30:10.289                             : en:Rebels In Retreat
00:32:13.490                             : en:Escape Aboard The Falcon
00:34:25.329                             : en:Leaving For Dagobah
00:35:19.130                             : en:The Empire In Pursuit
00:36:57.250                             : en:Asteroid Field
00:38:55.449                             : en:Crash Landing On Dagobah
00:42:29.570                             : en:Hunting The Falcon
00:44:13.409                             : en:"Found Someone, You Have"
00:48:08.449                             : en:Interrupted Kiss
00:50:06.289                             : en:The Emperor's Message
00:52:05.210                             : en:Yoda's Hut
00:55:17.010                             : en:"This Is No Cave"
00:58:26.690                             : en:Jedi Training
01:01:04.650                             : en:Failure At The Cave
01:03:03.449                             : en:Bounty Hunters
01:05:23.130                             : en:There Is No Try
01:10:22.170                             : en:Out With The Garbage
01:13:29.930                             : en:Seeing The Future
01:15:10.850                             : en:City In The Clouds
01:16:28.289                             : en:Meeting Lando
01:19:30.569                             : en:Leaving Dagobah
01:22:06.529                             : en:Leia's Concerns
01:24:13.810                             : en:Imperial Surprise
01:26:44.770                             : en:The Deal Gets Worse
01:30:45.609                             : en:Carbon-Freeze
01:34:25.329                             : en:Luke Enters The Trap
01:36:17.770                             : en:Confronting The Dark Lord
01:37:33.930                             : en:Lando's Second Surprise
01:39:34.649                             : en:Lightsaber Duel
01:42:37.930                             : en:Escape From Cloud City
01:44:51.170                             : en:Vader's Revelation
01:49:00.729                             : en:Falcon To The Rescue
01:51:27.609                             : en:The Empire Closes In
01:54:50.689                             : en:The Rebel Fleet
01:56:56.050                             : en:End Credits

Source:

Files:

  • Star Wars Episode V - The Empire Strikes Back (1980) [1080p x265 HEVC 10bit BD AAC 6.1] [Prof].mkv (6.0 GB)

Comments

Code:

  • udp://tracker.coppersurfer.tk:6969/announce
  • udp://tracker.opentrackr.org:1337/announce
  • udp://tracker.internetwarriors.net:1337/announce
  • udp://tracker.openbittorrent.com:80/announce
  • udp://retracker.lanta-net.ru:2710/announce
  • udp://tracker.torrent.eu.org:451/announce
  • udp://tracker.tiny-vps.com:6969/announce
  • udp://denis.stalker.upeer.me:6969/announce
  • udp://bt.xxx-tracker.com:2710/announce
  • udp://tracker.cyberia.is:6969/announce
  • udp://open.stealth.si:80/announce
/08/e7/ff/08e7ffd6a1ad8052c7c702273b643766.js'>