Brightburn (2019) (2160p BluRay x265 HEVC 10bit AAC 7.1 Joy) [UTR...

  • Category Movies
  • Type HEVC/x265
  • Language English
  • Total size 4.5 GB
  • Uploaded By UTRCorp
  • Downloads 200
  • Last checked 2 hours ago
  • Date uploaded 21 hours ago
  • Seeders 28
  • Leechers 24

Infohash : 5506229440B4FB188459A6865DF279CAA01E911D






Media Information

Media Information

Code:

General
Format : Matroska
Format version : Version 4 / Version 2
File size : 4.47 GiB
Duration : 1 h 30 min
Overall bit rate : 7 063 kb/s
Movie name : Brightburn 2019 (2160p x265 10bit FS92 Joy) [UTR]
Encoded date : UTC 2019-08-19 00:44:32
Writing application : mkvmerge v33.1.0 ('Primrose') 64-bit
Writing library : libebml v1.3.7 + libmatroska v1.5.0
Cover : Yes
Attachments : cover.jpg
Writing frontend : StaxRip v2.0.2.0, Encoded by JoyBell

Video
ID : 1
Format : HEVC
Format/Info : High Efficiency Video Coding
Format profile : Main [email protected]@Main
Codec ID : V_MPEGH/ISO/HEVC
Duration : 1 h 30 min
Bit rate : 5 997 kb/s
Width : 3 840 pixels
Height : 1 608 pixels
Display aspect ratio : 2.40:1
Frame rate mode : Constant
Frame rate : 23.976 (24000/1001) FPS
Color space : YUV
Chroma subsampling : 4:2:0
Bit depth : 10 bits
Bits/(Pixel*Frame) : 0.041
Stream size : 3.79 GiB (85%)
Writing library : x265 3.0_Au+24-4217e691387c:[Windows][GCC 9.1.1][64 bit] 10bit
Encoding settings : rc=abr / bitrate=6000 / qcomp=0.60 / qpstep=4 / stats-write=0 / stats-read=2 / cplxblur=20.0 / qblur=0.5 / qpmax=69 / qpmin=0 / no-lossless / no-cu-lossless / no-hevc-aq / no-aq-motion / aq-mode=3 / aq-strength=0.80 / cbqpoffs=0 / crqpoffs=0 / ipratio=1.40 / pbratio=1.30 / psy-rd=2.20 / psy-rdoq=1.15 / deblock=0:0 / ref=4 / limit-refs=3 / limit-modes / bframes=8 / b-adapt=2 / bframe-bias=20 / b-pyramid / no-b-intra / weightp / no-weightb / keyint=250 / min-keyint=23 / rc-lookahead=80 / gop-lookahead=0 / scenecut=40 / scenecut-bias=0.05 / ctu=64 / min-cu-size=8 / me=3 / subme=3 / merange=57 / rd=4 / no-rd-refine / ssim-rd / dynamic-rd=0.00 / rdoq-level=2 / rdpenalty=0 / cutree / sao / limit-sao / no-sao-non-deblock / no-rect / no-amp / open-gop / max-tu-size=32 / tu-inter-depth=1 / tu-intra-depth=1 / limit-tu=0 / qg-size=32 / wpp / no-pmode / no-pme / no-psnr / ssim / no-tskip / constrained-intra / strong-intra-smoothing / max-merge=3 / nr-intra=0 / nr-inter=0 / input-csp=1 / input-res=3840x1608 / interlace=0 / total-frames=130200 / level-idc=0 / high-tier=1cpuid=1111039 / frame-threads=3 / numa-pools=12 / log-level=2 / uhd-bd=0 / lookahead-slices=4 / radl=0 / no-splice / no-intra-refresh / signhide / temporal-mvp / no-analyze-src-pics / early-skip / rskip / no-fast-intra / no-tskip-fast / splitrd-skip / zone-count=0 / no-strict-cbr / no-rc-grain / no-const-vbv / no-allow-non-conformance / no-repeat-headers / annexb / no-aud / no-hrd / info / hash=0 / no-temporal-layers / sar=0 / overscan=0 / videoformat=5 / range=0 / colorprim=2 / transfer=2 / colormatrix=2 / chromaloc=0 / display-window=0 / max-cll=0,0 / min-luma=0 / max-luma=1023 / log2-max-poc-lsb=8 / vui-timing-info / vui-hrd-info / slices=1 / no-opt-qp-pps / no-opt-ref-list-length-pps / multi-pass-opt-rps / no-opt-cu-delta-qp / no-hdr / no-hdr-opt / no-dhdr10-opt / no-idr-recovery-sei / analysis-reuse-level=10 / scale-factor=0 / refine-intra=0 / refine-inter=0 / refine-mv=0 / refine-ctu-distortion=0 / ctu-info=0 / no-lowpass-dct / refine-analysis-type=0 / copy-pic=1 / max-ausize-factor=1.0 / no-dynamic-refine / no-single-sei / no-svt / qp-adaptation-range=1.00
Default : Yes
Forced : No

Audio #1
ID : 2
Format : AAC
Format/Info : Advanced Audio Codec
Format profile : LC
Codec ID : A_AAC
Duration : 1 h 30 min
Bit rate : 501 kb/s
Channel(s) : 8 channels
Channel positions : Front: L C R, Side: L R, Back: L R, LFE
Sampling rate : 48.0 kHz
Frame rate : 46.875 FPS (1024 spf)
Compression mode : Lossy
Delay relative to video : 9 ms
Stream size : 324 MiB (7%)
Language : English
Default : No
Forced : No

Audio #2
ID : 3
Format : AAC
Format/Info : Advanced Audio Codec
Format profile : HE-AAC / LC
Codec ID : A_AAC
Duration : 1 h 30 min
Bit rate : 43.1 kb/s
Channel(s) : 2 channels
Channel positions : Front: L R
Sampling rate : 48.0 kHz / 24.0 kHz
Frame rate : 23.438 FPS (1024 spf)
Compression mode : Lossy
Delay relative to video : 31 ms
Stream size : 27.9 MiB (1%)
Title : Commentary
Language : English
Default : No
Forced : No

Audio #3
ID : 4
Format : AAC
Format/Info : Advanced Audio Codec
Format profile : LC
Codec ID : A_AAC
Duration : 1 h 30 min
Bit rate : 84.6 kb/s
Channel(s) : 2 channels
Channel positions : Front: L R
Sampling rate : 48.0 kHz
Frame rate : 46.875 FPS (1024 spf)
Compression mode : Lossy
Delay relative to video : 9 ms
Stream size : 54.8 MiB (1%)
Language : French
Default : No
Forced : No

Audio #4
ID : 5
Format : AAC
Format/Info : Advanced Audio Codec
Format profile : LC
Codec ID : A_AAC
Duration : 1 h 30 min
Bit rate : 87.9 kb/s
Channel(s) : 2 channels
Channel positions : Front: L R
Sampling rate : 48.0 kHz
Frame rate : 46.875 FPS (1024 spf)
Compression mode : Lossy
Delay relative to video : 9 ms
Stream size : 56.9 MiB (1%)
Language : Spanish
Default : No
Forced : No

Audio #5
ID : 6
Format : AAC
Format/Info : Advanced Audio Codec
Format profile : LC
Codec ID : A_AAC
Duration : 1 h 30 min
Bit rate : 87.7 kb/s
Channel(s) : 2 channels
Channel positions : Front: L R
Sampling rate : 48.0 kHz
Frame rate : 46.875 FPS (1024 spf)
Compression mode : Lossy
Delay relative to video : 9 ms
Stream size : 56.8 MiB (1%)
Language : Thai
Default : No
Forced : No

Audio #6
ID : 7
Format : AAC
Format/Info : Advanced Audio Codec
Format profile : LC
Codec ID : A_AAC
Duration : 1 h 30 min
Bit rate : 88.1 kb/s
Channel(s) : 2 channels
Channel positions : Front: L R
Sampling rate : 48.0 kHz
Frame rate : 46.875 FPS (1024 spf)
Compression mode : Lossy
Delay relative to video : 9 ms
Stream size : 57.1 MiB (1%)
Language : Turkish
Default : No
Forced : No

Subtitle #1
ID : 8
Format : PGS
Muxing mode : zlib
Codec ID : S_HDMV/PGS
Codec ID/Info : Picture based subtitle format used on BDs/HD-DVDs
Duration : 1 h 24 min
Bit rate : 25.5 kb/s
Count of elements : 1742
Stream size : 15.4 MiB (0%)
Language : English
Default : No
Forced : No

Subtitle #2
ID : 9
Format : UTF-8
Codec ID : S_TEXT/UTF8
Codec ID/Info : UTF-8 Plain Text
Duration : 1 h 27 min
Bit rate : 45 b/s
Count of elements : 959
Stream size : 28.9 KiB (0%)
Language : English
Default : No
Forced : No

Subtitle #3
ID : 10
Format : VobSub
Muxing mode : zlib
Codec ID : S_VOBSUB
Codec ID/Info : Picture based subtitle format used on DVDs
Duration : 1 h 28 min
Bit rate : 9 157 b/s
Count of elements : 1208
Stream size : 5.80 MiB (0%)
Language : English
Default : No
Forced : No

Subtitle #4
ID : 11
Format : VobSub
Muxing mode : zlib
Codec ID : S_VOBSUB
Codec ID/Info : Picture based subtitle format used on DVDs
Duration : 1 h 29 min
Bit rate : 3 410 b/s
Count of elements : 947
Stream size : 2.18 MiB (0%)
Language : Arabic
Default : No
Forced : No

Subtitle #5
ID : 12
Format : VobSub
Muxing mode : zlib
Codec ID : S_VOBSUB
Codec ID/Info : Picture based subtitle format used on DVDs
Duration : 1 h 29 min
Bit rate : 5 109 b/s
Count of elements : 954
Stream size : 3.27 MiB (0%)
Language : Chinese
Default : No
Forced : No

Subtitle #6
ID : 13
Format : VobSub
Muxing mode : zlib
Codec ID : S_VOBSUB
Codec ID/Info : Picture based subtitle format used on DVDs
Duration : 1 h 29 min
Bit rate : 5 462 b/s
Count of elements : 893
Stream size : 3.49 MiB (0%)
Language : Chinese
Default : No
Forced : No

Subtitle #7
ID : 14
Format : VobSub
Muxing mode : zlib
Codec ID : S_VOBSUB
Codec ID/Info : Picture based subtitle format used on DVDs
Duration : 1 h 29 min
Bit rate : 5 522 b/s
Count of elements : 939
Stream size : 3.53 MiB (0%)
Language : Croatian
Default : No
Forced : No

Subtitle #8
ID : 15
Format : VobSub
Muxing mode : zlib
Codec ID : S_VOBSUB
Codec ID/Info : Picture based subtitle format used on DVDs
Duration : 1 h 29 min
Bit rate : 5 172 b/s
Count of elements : 831
Stream size : 3.30 MiB (0%)
Language : French
Default : No
Forced : No

Subtitle #9
ID : 16
Format : VobSub
Muxing mode : zlib
Codec ID : S_VOBSUB
Codec ID/Info : Picture based subtitle format used on DVDs
Duration : 1 h 29 min
Bit rate : 5 747 b/s
Count of elements : 938
Stream size : 3.67 MiB (0%)
Language : Czech
Default : No
Forced : No

Subtitle #10
ID : 17
Format : VobSub
Muxing mode : zlib
Codec ID : S_VOBSUB
Codec ID/Info : Picture based subtitle format used on DVDs
Duration : 1 h 29 min
Bit rate : 6 618 b/s
Count of elements : 905
Stream size : 4.23 MiB (0%)
Language : Greek
Default : No
Forced : No

Subtitle #11
ID : 18
Format : VobSub
Muxing mode : zlib
Codec ID : S_VOBSUB
Codec ID/Info : Picture based subtitle format used on DVDs
Duration : 1 h 29 min
Bit rate : 6 038 b/s
Count of elements : 885
Stream size : 3.86 MiB (0%)
Language : Hungarian
Default : No
Forced : No

Subtitle #12
ID : 19
Format : VobSub
Muxing mode : zlib
Codec ID : S_VOBSUB
Codec ID/Info : Picture based subtitle format used on DVDs
Duration : 1 h 29 min
Bit rate : 6 314 b/s
Count of elements : 864
Stream size : 4.03 MiB (0%)
Language : Icelandic
Default : No
Forced : No

Subtitle #13
ID : 20
Format : VobSub
Muxing mode : zlib
Codec ID : S_VOBSUB
Codec ID/Info : Picture based subtitle format used on DVDs
Duration : 1 h 29 min
Bit rate : 5 192 b/s
Count of elements : 949
Stream size : 3.32 MiB (0%)
Language : Korean
Default : No
Forced : No

Subtitle #14
ID : 21
Format : VobSub
Muxing mode : zlib
Codec ID : S_VOBSUB
Codec ID/Info : Picture based subtitle format used on DVDs
Duration : 1 h 29 min
Bit rate : 8 039 b/s
Count of elements : 905
Stream size : 5.13 MiB (0%)
Language : Malay
Default : No
Forced : No

Subtitle #15
ID : 22
Format : VobSub
Muxing mode : zlib
Codec ID : S_VOBSUB
Codec ID/Info : Picture based subtitle format used on DVDs
Duration : 1 h 29 min
Bit rate : 5 457 b/s
Count of elements : 902
Stream size : 3.48 MiB (0%)
Language : Polish
Default : No
Forced : No

Subtitle #16
ID : 23
Format : VobSub
Muxing mode : zlib
Codec ID : S_VOBSUB
Codec ID/Info : Picture based subtitle format used on DVDs
Duration : 1 h 29 min
Bit rate : 6 886 b/s
Count of elements : 929
Stream size : 4.40 MiB (0%)
Language : Portuguese
Default : No
Forced : No

Subtitle #17
ID : 24
Format : VobSub
Muxing mode : zlib
Codec ID : S_VOBSUB
Codec ID/Info : Picture based subtitle format used on DVDs
Duration : 1 h 29 min
Bit rate : 6 191 b/s
Count of elements : 868
Stream size : 3.95 MiB (0%)
Language : Romanian
Default : No
Forced : No

Subtitle #18
ID : 25
Format : VobSub
Muxing mode : zlib
Codec ID : S_VOBSUB
Codec ID/Info : Picture based subtitle format used on DVDs
Duration : 1 h 29 min
Bit rate : 5 329 b/s
Count of elements : 944
Stream size : 3.41 MiB (0%)
Language : Slovak
Default : No
Forced : No

Subtitle #19
ID : 26
Format : VobSub
Muxing mode : zlib
Codec ID : S_VOBSUB
Codec ID/Info : Picture based subtitle format used on DVDs
Duration : 1 h 29 min
Bit rate : 5 319 b/s
Count of elements : 736
Stream size : 3.40 MiB (0%)
Language : Slovenian
Default : No
Forced : No

Subtitle #20
ID : 27
Format : VobSub
Muxing mode : zlib
Codec ID : S_VOBSUB
Codec ID/Info : Picture based subtitle format used on DVDs
Duration : 1 h 29 min
Bit rate : 6 054 b/s
Count of elements : 916
Stream size : 3.87 MiB (0%)
Language : Spanish
Default : No
Forced : No

Subtitle #21
ID : 28
Format : VobSub
Muxing mode : zlib
Codec ID : S_VOBSUB
Codec ID/Info : Picture based subtitle format used on DVDs
Duration : 1 h 29 min
Bit rate : 118 b/s
Count of elements : 11
Stream size : 77.6 KiB (0%)
Language : Spanish
Default : No
Forced : Yes

Subtitle #22
ID : 29
Format : VobSub
Muxing mode : zlib
Codec ID : S_VOBSUB
Codec ID/Info : Picture based subtitle format used on DVDs
Duration : 1 h 29 min
Bit rate : 5 889 b/s
Count of elements : 874
Stream size : 3.76 MiB (0%)
Language : Spanish
Default : No
Forced : No

Subtitle #23
ID : 30
Format : VobSub
Muxing mode : zlib
Codec ID : S_VOBSUB
Codec ID/Info : Picture based subtitle format used on DVDs
Duration : 1 h 29 min
Bit rate : 102 b/s
Count of elements : 8
Stream size : 67.3 KiB (0%)
Language : Spanish
Default : No
Forced : Yes

Subtitle #24
ID : 31
Format : VobSub
Muxing mode : zlib
Codec ID : S_VOBSUB
Codec ID/Info : Picture based subtitle format used on DVDs
Duration : 1 h 29 min
Bit rate : 5 041 b/s
Count of elements : 955
Stream size : 3.22 MiB (0%)
Language : Thai
Default : No
Forced : No

Subtitle #25
ID : 32
Format : VobSub
Muxing mode : zlib
Codec ID : S_VOBSUB
Codec ID/Info : Picture based subtitle format used on DVDs
Duration : 1 h 29 min
Bit rate : 6 655 b/s
Count of elements : 941
Stream size : 4.25 MiB (0%)
Language : Turkish
Default : No
Forced : No

Subtitle #26
ID : 33
Format : VobSub
Muxing mode : zlib
Codec ID : S_VOBSUB
Codec ID/Info : Picture based subtitle format used on DVDs
Duration : 1 h 30 min
Bit rate : 21.2 kb/s
Count of elements : 1716
Stream size : 13.7 MiB (0%)
Language : English
Default : No
Forced : No

Subtitle #27
ID : 34
Format : VobSub
Muxing mode : zlib
Codec ID : S_VOBSUB
Codec ID/Info : Picture based subtitle format used on DVDs
Duration : 1 h 30 min
Bit rate : 18.8 kb/s
Count of elements : 1591
Stream size : 12.2 MiB (0%)
Language : English
Default : No
Forced : No

Subtitle #28
ID : 35
Format : VobSub
Muxing mode : zlib
Codec ID : S_VOBSUB
Codec ID/Info : Picture based subtitle format used on DVDs
Duration : 1 h 30 min
Bit rate : 14.5 kb/s
Count of elements : 1591
Stream size : 9.35 MiB (0%)
Language : Chinese
Default : No
Forced : No

Subtitle #29
ID : 36
Format : VobSub
Muxing mode : zlib
Codec ID : S_VOBSUB
Codec ID/Info : Picture based subtitle format used on DVDs
Duration : 1 h 30 min
Bit rate : 13.7 kb/s
Count of elements : 1591
Stream size : 8.85 MiB (0%)
Language : Korean
Default : No
Forced : No

Subtitle #30
ID : 37
Format : VobSub
Muxing mode : zlib
Codec ID : S_VOBSUB
Codec ID/Info : Picture based subtitle format used on DVDs
Duration : 1 h 30 min
Bit rate : 15.5 kb/s
Count of elements : 1591
Stream size : 10.1 MiB (0%)
Language : Spanish
Default : No
Forced : No

Subtitle #31
ID : 38
Format : VobSub
Muxing mode : zlib
Codec ID : S_VOBSUB
Codec ID/Info : Picture based subtitle format used on DVDs
Duration : 1 h 30 min
Bit rate : 17.9 kb/s
Count of elements : 1590
Stream size : 11.6 MiB (0%)
Language : Spanish
Default : No
Forced : No

Subtitle #32
ID : 39
Format : VobSub
Muxing mode : zlib
Codec ID : S_VOBSUB
Codec ID/Info : Picture based subtitle format used on DVDs
Duration : 1 h 30 min
Bit rate : 15.9 kb/s
Count of elements : 1591
Stream size : 10.3 MiB (0%)
Language : Thai
Default : No
Forced : No

Subtitle #33
ID : 40
Format : UTF-8
Codec ID : S_TEXT/UTF8
Codec ID/Info : UTF-8 Plain Text
Duration : 1 h 24 min
Bit rate : 32 b/s
Count of elements : 630
Stream size : 19.9 KiB (0%)
Language : Danish
Default : No
Forced : No

Subtitle #34
ID : 41
Format : UTF-8
Codec ID : S_TEXT/UTF8
Codec ID/Info : UTF-8 Plain Text
Duration : 1 h 24 min
Bit rate : 37 b/s
Count of elements : 638
Stream size : 22.8 KiB (0%)
Language : Dutch
Default : No
Forced : No

Subtitle #35
ID : 42
Format : UTF-8
Codec ID : S_TEXT/UTF8
Codec ID/Info : UTF-8 Plain Text
Duration : 1 h 25 min
Bit rate : 64 b/s
Count of elements : 975
Stream size : 40.6 KiB (0%)
Language : Persian
Default : No
Forced : No

Subtitle #36
ID : 43
Format : UTF-8
Codec ID : S_TEXT/UTF8
Codec ID/Info : UTF-8 Plain Text
Duration : 1 h 29 min
Bit rate : 35 b/s
Count of elements : 762
Stream size : 23.5 KiB (0%)
Language : Finnish
Default : No
Forced : No

Subtitle #37
ID : 44
Format : UTF-8
Codec ID : S_TEXT/UTF8
Codec ID/Info : UTF-8 Plain Text
Duration : 1 h 29 min
Bit rate : 37 b/s
Count of elements : 864
Stream size : 24.7 KiB (0%)
Language : Icelandic
Default : No
Forced : No

Subtitle #38
ID : 45
Format : UTF-8
Codec ID : S_TEXT/UTF8
Codec ID/Info : UTF-8 Plain Text
Duration : 1 h 29 min
Bit rate : 41 b/s
Count of elements : 973
Stream size : 27.3 KiB (0%)
Language : Indonesian
Default : No
Forced : No

Subtitle #39
ID : 46
Format : UTF-8
Codec ID : S_TEXT/UTF8
Codec ID/Info : UTF-8 Plain Text
Duration : 1 h 29 min
Bit rate : 32 b/s
Count of elements : 725
Stream size : 21.5 KiB (0%)
Language : Norwegian
Default : No
Forced : No

Subtitle #40
ID : 47
Format : UTF-8
Codec ID : S_TEXT/UTF8
Codec ID/Info : UTF-8 Plain Text
Duration : 1 h 29 min
Bit rate : 36 b/s
Count of elements : 867
Stream size : 24.1 KiB (0%)
Language : Portuguese
Default : No
Forced : No

Subtitle #41
ID : 48
Format : UTF-8
Codec ID : S_TEXT/UTF8
Codec ID/Info : UTF-8 Plain Text
Duration : 1 h 29 min
Bit rate : 60 b/s
Count of elements : 895
Stream size : 39.8 KiB (0%)
Language : Russian
Default : No
Forced : No

Subtitle #42
ID : 49
Format : UTF-8
Codec ID : S_TEXT/UTF8
Codec ID/Info : UTF-8 Plain Text
Duration : 1 h 25 min
Bit rate : 45 b/s
Count of elements : 832
Stream size : 28.3 KiB (0%)
Language : Spanish
Default : No
Forced : No

Subtitle #43
ID : 50
Format : UTF-8
Codec ID : S_TEXT/UTF8
Codec ID/Info : UTF-8 Plain Text
Duration : 1 h 29 min
Bit rate : 32 b/s
Count of elements : 669
Stream size : 21.2 KiB (0%)
Language : Swedish
Default : No
Forced : No

Subtitle #44
ID : 51
Format : UTF-8
Codec ID : S_TEXT/UTF8
Codec ID/Info : UTF-8 Plain Text
Duration : 1 h 29 min
Bit rate : 58 b/s
Count of elements : 893
Stream size : 38.4 KiB (0%)
Language : Ukrainian
Default : No
Forced : No

Subtitle #45
ID : 52
Format : UTF-8
Codec ID : S_TEXT/UTF8
Codec ID/Info : UTF-8 Plain Text
Duration : 1 h 25 min
Bit rate : 50 b/s
Count of elements : 672
Stream size : 31.9 KiB (0%)
Language : Vietnamese
Default : No
Forced : No

Menu
00:00:00.000 : en:Chapter 01
00:03:20.700 : en:Chapter 02
00:07:04.382 : en:Chapter 03
00:12:30.791 : en:Chapter 04
00:17:46.774 : en:Chapter 05
00:24:22.961 : en:Chapter 06
00:30:28.535 : en:Chapter 07
00:38:06.617 : en:Chapter 08
00:43:11.672 : en:Chapter 09
00:49:25.754 : en:Chapter 10
00:56:53.410 : en:Chapter 11
01:00:12.358 : en:Chapter 12
01:05:21.751 : en:Chapter 13
01:08:15.758 : en:Chapter 14
01:12:20.461 : en:Chapter 15
01:17:28.894 : en:Chapter 16



Source Information

Code:

Release: Brightburn.2019.2160p.BluRay.REMUX.HEVC.DTS-HD.MA.TrueHD.7.1.Atmos-FGT.mkv (48.42 GBs)


Code:


Note From UTR
We have no issue with individuals posting or re-uploading our torrents on a platform we aren't on. However, if this is something you'd like to do, please do so in a 'as-is' format. We ask that you do not create a new torrent, include all descriptions you see above including the UTR logo, tags, notes and screenshots. If you'd like to become a permanent poster on a website we don't post to, feel free to get in contact with a UniTeam member.

If possible please donate: BTC 1QA5fum5AyXvWzdVCkQzUNvw3Ef15fHRaR




Files:

  • Brightburn 2019 (2160p x265 10bit FS92 Joy).mkv (4.5 GB)

There are currently no comments. Feel free to leave one :)

Code:

  • udp://tracker.coppersurfer.tk:6969/announce
  • udp://9.rarbg.com:2710/announce
  • udp://9.rarbg.to:2710/announce
  • udp://tracker.torrent.eu.org:451/announce
  • udp://exodus.desync.com:6969/announce
  • udp://tracker.tiny-vps.com:6969/announce
  • udp://open.demonii.si:1337/announce
  • udp://tracker.opentrackr.org:1337/announce
  • udp://tracker.internetwarriors.net:1337/announce
/08/e7/ff/08e7ffd6a1ad8052c7c702273b643766.js'>