Watchmen (2009) Director's Cut Open Matte (1080p WEB-DL x265 HEVC...

  • Category Movies
  • Type HEVC/x265
  • Language English
  • Total size 2.7 GB
  • Uploaded By UTRCorp
  • Downloads 1244
  • Last checked 43 minutes ago
  • Date uploaded 21 hours ago
  • Seeders 123
  • Leechers 71

Watchmen

ActionAdventureMysteryScience FictionThriller

In a gritty and alternate 1985 the glory days of costumed vigilantes have been brought to a close by a government crackdown, but after one of the masked veterans is brutally murdered an investigation into the killer is initiated. The reunited heroes set out to prevent their own destruction, but in doing so uncover a sinister plot that puts all of humanity in grave danger.

Infohash : 1AA5110E997C9A740A03A3EE2990580F7AEA4D03


Media Information

Media Information


Code:

General
Format                                   : Matroska
Format version                           : Version 4 / Version 2
File size                                : 2.67 GiB
Duration                                 : 3 h 6 min
Overall bit rate                         : 2 052 kb/s
Movie name                               : Watchmen 2009 Director's Cut Open Matte  (1080p x265 q22 FS Joy)[UTR]
Encoded date                             : UTC 2019-08-18 19:12:29
Writing application                      : mkvmerge v32.0.0 ('Astral Progressions') 64-bit
Writing library                          : libebml v1.3.7 + libmatroska v1.5.0
Writing frontend                         : StaxRip v2.0.2.0, a JoyBell Encode

Video
ID                                       : 1
Format                                   : HEVC
Format/Info                              : High Efficiency Video Coding
Format profile                           : Main [email protected]@Main
Codec ID                                 : V_MPEGH/ISO/HEVC
Duration                                 : 3 h 6 min
Bit rate                                 : 1 723 kb/s
Width                                    : 1 920 pixels
Height                                   : 1 080 pixels
Display aspect ratio                     : 16:9
Frame rate mode                          : Constant
Frame rate                               : 23.976 (24000/1001) FPS
Color space                              : YUV
Chroma subsampling                       : 4:2:0
Bit depth                                : 10 bits
Bits/(Pixel*Frame)                       : 0.035
Stream size                              : 2.24 GiB (84%)
Writing library                          : x265 3.0_Au+24-4217e691387c:[Windows][GCC 9.1.1][64 bit] 10bit
Encoding settings                        : rc=crf / crf=21.5000 / qcomp=0.60 / qpstep=4 / stats-write=0 / stats-read=0 / qpmax=69 / qpmin=0 / no-lossless / no-cu-lossless / hevc-aq / no-aq-motion / aq-mode=3 / aq-strength=1.00 / cbqpoffs=0 / crqpoffs=0 / ipratio=1.40 / pbratio=1.30 / psy-rd=2.50 / psy-rdoq=0.80 / deblock=-2:-2 / ref=4 / limit-refs=3 / limit-modes / bframes=8 / b-adapt=2 / bframe-bias=20 / b-pyramid / no-b-intra / weightp / no-weightb / keyint=250 / min-keyint=23 / rc-lookahead=80 / gop-lookahead=0 / scenecut=40 / scenecut-bias=0.05 / ctu=64 / min-cu-size=8 / me=3 / subme=5 / merange=57 / rd=4 / no-rd-refine / ssim-rd / dynamic-rd=0.00 / rdoq-level=2 / rdpenalty=0 / cutree / sao / no-limit-sao / no-sao-non-deblock / rect / no-amp / open-gop / max-tu-size=32 / tu-inter-depth=1 / tu-intra-depth=1 / limit-tu=0 / qg-size=32 / wpp / no-pmode / no-pme / no-psnr / ssim / no-tskip / constrained-intra / strong-intra-smoothing / max-merge=5 / nr-intra=0 / nr-inter=0 / input-csp=1 / input-res=1920x1080 / interlace=0 / total-frames=268396 / level-idc=0 / high-tier=1cpuid=1111039 / frame-threads=3 / numa-pools=12 / log-level=2 / uhd-bd=0 / lookahead-slices=4 / radl=0 / no-splice / no-intra-refresh / signhide / temporal-mvp / no-analyze-src-pics / early-skip / rskip / no-fast-intra / no-tskip-fast / no-splitrd-skip / zone-count=0 / no-strict-cbr / no-rc-grain / no-const-vbv / no-allow-non-conformance / no-repeat-headers / annexb / no-aud / no-hrd / info / hash=0 / no-temporal-layers / sar=0 / overscan=0 / videoformat=5 / range=0 / colorprim=2 / transfer=2 / colormatrix=1 / chromaloc=0 / display-window=0 / max-cll=0,0 / min-luma=0 / max-luma=1023 / log2-max-poc-lsb=8 / vui-timing-info / vui-hrd-info / slices=1 / no-opt-qp-pps / no-opt-ref-list-length-pps / no-multi-pass-opt-rps / no-opt-cu-delta-qp / no-hdr / no-hdr-opt / no-dhdr10-opt / no-idr-recovery-sei / analysis-reuse-level=5 / scale-factor=0 / refine-intra=0 / refine-inter=0 / refine-mv=0 / refine-ctu-distortion=0 / ctu-info=0 / no-lowpass-dct / refine-analysis-type=0 / copy-pic=1 / max-ausize-factor=1.0 / no-dynamic-refine / no-single-sei / no-svt / qp-adaptation-range=1.00
Default                                  : Yes
Forced                                   : No
Color range                              : Limited
Matrix coefficients                      : BT.709

Audio
ID                                       : 2
Format                                   : AAC
Format/Info                              : Advanced Audio Codec
Format profile                           : LC
Codec ID                                 : A_AAC
Duration                                 : 3 h 6 min
Bit rate                                 : 327 kb/s
Channel(s)                               : 6 channels
Channel positions                        : Front: L C R, Side: L R, LFE
Sampling rate                            : 48.0 kHz
Frame rate                               : 46.875 FPS (1024 spf)
Compression mode                         : Lossy
Delay relative to video                  : 59 ms
Stream size                              : 436 MiB (16%)
Language                                 : English
Default                                  : No
Forced                                   : No

Subtitle #1
ID                                       : 3
Format                                   : UTF-8
Codec ID                                 : S_TEXT/UTF8
Codec ID/Info                            : UTF-8 Plain Text
Duration                                 : 2 h 59 min
Bit rate                                 : 52 b/s
Count of elements                        : 1937
Stream size                              : 68.4 KiB (0%)
Language                                 : English
Default                                  : No
Forced                                   : No

Subtitle #2
ID                                       : 4
Format                                   : UTF-8
Codec ID                                 : S_TEXT/UTF8
Codec ID/Info                            : UTF-8 Plain Text
Duration                                 : 3 h 5 min
Bit rate                                 : 60 b/s
Count of elements                        : 2783
Stream size                              : 82.0 KiB (0%)
Language                                 : English
Default                                  : No
Forced                                   : No

Menu
00:00:00.000                             : en:Unforgettable Fall
00:05:37.044                             : en:Changing Times Credits
00:11:11.503                             : en:Somebody Knows Why
00:16:00.709                             : en:Us Retired Guys
00:19:00.931                             : en:Hiding in Plain Sight
00:23:44.130                             : en:Friendly Warnings
00:26:34.842                             : en:Interference
00:31:33.307                             : en:Not That Many Laughs
00:36:22.221                             : en:Tough All Over
00:40:56.745                             : en:Vietnam Victory Night
00:44:53.982                             : en:Right Leadership
00:47:22.672                             : en:What Happened to Us?
00:51:35.925                             : en:Moloch's Second Visitor
00:56:05.570                             : en:I Am Pagliacci
00:58:13.239                             : en:Unwanted Responsibility
01:00:54.275                             : en:Shadows in the Fog
01:04:08.594                             : en:Leave Me Alone
01:11:18.106                             : en:Old Photographs
01:13:09.593                             : en:The Accident
01:16:41.221                             : en:Something Lethal
01:18:42.592                             : en:Tired of Earth
01:21:42.855                             : en:Executive Decision
01:26:47.410                             : en:Making a Killing
01:31:13.300                             : en:Framed
01:37:04.818                             : en:Rorschach Test
01:41:05.684                             : en:Dogs Get Put Down
01:46:52.739                             : en:He Doesn't See Me
01:53:46.027                             : en:Tired of Being Afraid
01:57:14.026                             : en:Night Riders
02:02:58.453                             : en:Come and Get Me
02:06:02.596                             : en:Prison Break
02:10:19.060                             : en:Final Battle
02:15:14.063                             : en:How We Do Things
02:19:27.233                             : en:Do It for Me
02:22:08.769                             : en:Pyramid Scheme
02:27:06.233                             : en:Shattering and Miraculous
02:33:50.136                             : en:Antarctica Arrival
02:36:32.841                             : en:World's Punishment
02:40:58.231                             : en:Detonation
02:44:21.058                             : en:Reassembled
02:47:26.994                             : en:Keep Your Own Secrets
02:50:57.454                             : en:Goodbyes
02:55:02.157                             : en:Still America
02:59:41.144                             : en:End Credits



Source Information


Code:

Release: Watchmen.2009.Director's.Cut.Open.Matte.WEB-DL-BLUEBIRD (19.5 GB)


Code:


Note From UTR
We have no issue with individuals posting or re-uploading our torrents on a platform we aren't on. However, if this is something you'd like to do, please do so in a 'as-is' format. We ask that you do not create a new torrent, include all descriptions you see above including the UTR logo, tags, notes and screenshots. If you'd like to become a permanent poster on a website we don't post to, feel free to get in contact with a UniTeam member.

If possible please donate: BTC 1QA5fum5AyXvWzdVCkQzUNvw3Ef15fHRaR




Files:

  • Watchmen 2009 Director's Cut Open Matte (1080p x265 q22 FS82 Joy).mkv (2.7 GB)

Comments

Code:

  • udp://tracker.coppersurfer.tk:6969/announce
  • udp://9.rarbg.com:2710/announce
  • udp://9.rarbg.to:2710/announce
  • udp://tracker.torrent.eu.org:451/announce
  • udp://exodus.desync.com:6969/announce
  • udp://tracker.tiny-vps.com:6969/announce
  • udp://open.demonii.si:1337/announce
  • udp://tracker.opentrackr.org:1337/announce
  • udp://tracker.internetwarriors.net:1337/announce
/08/e7/ff/08e7ffd6a1ad8052c7c702273b643766.js'>