The Social Network 2010 1080p x265 hevc 10bit BluRay Dual Eng 5.1...

  • Category Movies
  • Type HEVC/x265
  • Language English
  • Total size 1.4 GB
  • Uploaded By BoyRocks
  • Downloads 224
  • Last checked 12 minutes ago
  • Date uploaded 16 hours ago
  • Seeders 29
  • Leechers 6

The Social Network

Drama

On a fall night in 2003, Harvard undergrad and computer programming genius Mark Zuckerberg sits down at his computer and heatedly begins working on a new idea. In a fury of blogging and programming, what begins in his dorm room as a small site among friends soon becomes a global social network and a revolution in communication. A mere six years and 500 million friends later, Mark Zuckerberg is the youngest billionaire in history... but for this entrepreneur, success leads to both personal and legal complications.

Infohash : 27DE1FC8D2FD6F38A10005E3EAE9942B45397AB0

The Social Network 2010 1080p BluRay x265 HEVC 10bit Dual Eng 5.1 Hindi 5.1 by R92









plz seed after download

Format                      : HEVC
Format/Info                 : High Efficiency Video Coding
Format profile              : Main [email protected]@Main
Codec ID                    : V_MPEGH/ISO/HEVC
Duration                    : 2 h 0 min
Bit rate                    : 782 kb/s
Width                       : 1 920 pixels
Height                      : 796 pixels
Display aspect ratio        : 2.40:1
Frame rate mode             : Constant
Frame rate                  : 23.976 (24000/1001) FPS
Color space                 : YUV
Chroma subsampling          : 4:2:0
Bit depth                   : 10 bits
Stream size                 : 674 MiB (47%)
Writing library             : x265  10bit

Audio #1
ID                          : 2
Format                      : AC-3
Duration                    : 2 h 0 min
Bit rate mode               : Constant
Bit rate                    : 384 kb/s
Channel(s)                  : 6 channels
Channel positions           : Front: L C R, Side: L R, LFE
Sampling rate               : 48.0 kHz
Frame rate                  : 31.250 FPS (1536 SPF)
Compression mode            : Lossy
Stream size                 : 331 MiB (23%)
Title                       : DD 5.1 384kbps Hindi AC3
Language                    : Hindi  [Remastred]

Audio #2
ID                          : 3
Format                      : AC-3
Duration                    : 2 h 0 min
Bit rate mode               : Constant
Bit rate                    : 448 kb/s
Channel(s)                  : 6 channels
Channel positions           : Front: L C R, Side: L R, LFE
Sampling rate               : 48.0 kHz
Stream size                 : 380 MiB (27%)
Language                    : English
Service kind                : Complete Main

Text #1
ID                          : 4
Format                      : VobSub
Muxing mode                 : zlib
Codec ID                    : S_VOBSUB
Codec ID/Info               : Picture based subtitle format used on DVDs
Duration                    : 1 h 53 min
Bit rate                    : 17.6 kb/s
Count of elements           : 2288
Stream size                 : 14.3 MiB (1%)
Language                    : English
Default                     : Yes
Forced                      : No

Text #2
ID                          : 5
Format                      : VobSub
Muxing mode                 : zlib
Codec ID                    : S_VOBSUB
Codec ID/Info               : Picture based subtitle format used on DVDs
Duration                    : 1 h 55 min
Bit rate                    : 7 153 b/s
Count of elements           : 2316
Stream size                 : 5.91 MiB (0%)
Language                    : Arabic
Default                     : No
Forced                      : No

Text #3
ID                          : 6
Format                      : VobSub
Muxing mode                 : zlib
Codec ID                    : S_VOBSUB
Codec ID/Info               : Picture based subtitle format used on DVDs
Duration                    : 1 h 55 min
Bit rate                    : 12.6 kb/s
Count of elements           : 2317
Stream size                 : 10.4 MiB (1%)
Language                    : Hindi
Default                     : No
Forced                      : No

Text #4
ID                          : 7
Format                      : VobSub
Muxing mode                 : zlib
Codec ID                    : S_VOBSUB
Codec ID/Info               : Picture based subtitle format used on DVDs
Duration                    : 1 h 55 min
Bit rate                    : 17.6 kb/s
Count of elements           : 1722
Stream size                 : 14.5 MiB (1%)
Language                    : Indonesian
Default                     : No
Forced                      : No

Text #5
ID                          : 8
Format                      : VobSub
Muxing mode                 : zlib
Codec ID                    : S_VOBSUB
Codec ID/Info               : Picture based subtitle format used on DVDs
Duration                    : 1 h 55 min
Bit rate                    : 11.8 kb/s
Count of elements           : 2242
Stream size                 : 9.69 MiB (1%)
Language                    : Polish
Default                     : No
Forced                      : No

Text #6
ID                          : 9
Format                      : VobSub
Muxing mode                 : zlib
Codec ID                    : S_VOBSUB
Codec ID/Info               : Picture based subtitle format used on DVDs
Duration                    : 1 h 55 min
Bit rate                    : 16.6 kb/s
Count of elements           : 2298
Stream size                 : 13.7 MiB (1%)
Language                    : Greek
Default                     : No
Forced                      : No

Text #7
ID                          : 10
Format                      : VobSub
Muxing mode                 : zlib
Codec ID                    : S_VOBSUB
Codec ID/Info               : Picture based subtitle format used on DVDs
Duration                    : 1 h 55 min
Bit rate                    : 10.9 kb/s
Count of elements           : 2294
Stream size                 : 9.01 MiB (1%)
Language                    : Hebrew
Default                     : No
Forced                      : No

Text #8
ID                          : 11
Format                      : VobSub
Muxing mode                 : zlib
Codec ID                    : S_VOBSUB
Codec ID/Info               : Picture based subtitle format used on DVDs
Duration                    : 1 h 55 min
Bit rate                    : 12.2 kb/s
Count of elements           : 1745
Stream size                 : 10.0 MiB (1%)
Language                    : Hungarian
Default                     : No
Forced                      : No

Menu
00:00:00.000                : en:Breakup
00:07:33.411                : en:FaceMash
00:17:15.409                : en:The Winklevoss Brothers
00:24:20.000                : en:Caribbean Night
00:31:07.115                : en:Thefacebook
00:34:47.502                : en:Harvard gentlemen
00:44:27.164                : en:The Girls
00:50:54.301                : en:Expanding
00:55:39.253                : en:Sean Parker
01:00:15.612                : en:Meetings
01:11:41.130                : en:Animal Cruelty
01:18:29.496                : en:California
01:24:22.474                : en:Henley Royal Regatta
01:33:16.966                : en:Freezing Account
01:38:04.087                : en:Dilution
01:47:09.715                : en:Leaving of Sean Parker

Files:

The Social Network 2010 1080p BluRay x265 HEVC 10bit Dual Eng 5.1 Hindi 5.1 ~ Rohit
  • info- Don't Think Just Download.txt (6.9 KB)
  • The Social Network 2010 1080p BluRay x265 hevc 10bit Dual Eng 5.1 Hindi 5.1 ~Rohit.mkv (1.4 GB)

There are currently no comments. Feel free to leave one :)

Code:

  • udp://tracker.leechers-paradise.org:6969/announce
  • udp://tracker.coppersurfer.tk:6969/announce
  • udp://tracker.opentrackr.org:1337/announce
  • udp://tracker.zer0day.to:1337/announce
  • udp://eddie4.nl:6969/announce
  • http://bigfoot1942.sektori.org:6969/announce
  • http://tracker2.wasabii.com.tw:6969/announce
  • udp://tracker.opentrackr.org:80/announce
  • http://announce.torrentsmd.com:6969/announce
  • udp://tracker.trackerfix.com:82/announce
  • udp://explodie.org:6969/announce
  • udp://mgtracker.org:6969/announce
  • udp://asnet.pw:2710/announce
  • udp://tracker.mgtracker.org:2710/announce
  • udp://tracker4.piratux.com:6969/announce
  • udp://tracker.trackerfix.com:82/announce
  • udp://tracker.pomf.se:80/announce
  • udp://tracker.x4w.co:6969/announce
  • udp://castradio.net:6969/announce
  • udp://ipv4.tracker.harry.lu:80/announce
  • udp://tracker.mg64.net:6881/announce
  • udp://tracker.sktorrent.net:6969/announce
  • udp://tracker.blackunicorn.xyz:6969/announce
  • udp://tracker.internetwarriors.net:1337/announce
  • udp://public.popcorn-tracker.org:6969/announce
  • http://glotorrents.pw:80/announce
  • udp://tracker.vanitycore.co:6969/announce
  • udp://p4p.arenabg.ch:1337/announce
  • udp://9.rarbg.me:2710/announce
  • udp://tracker.zer0day.to:1337/announce
  • udp://tracker.opentrackr.org:1337/announce
  • udp://tracker.pirateparty.gr:6969/announce
  • udp://9.rarbg.to:2710/announce
  • udp://eddie4.nl:6969/announce
  • udp://tracker.coppersurfer.tk:6969/announce
  • udp://tracker.leechers-paradise.org:6969/announce
  • UDP://EDDIE4.NL:6969/announce
  • UDP://TRACKER.ZER0DAY.TO:1337/announce
  • UDP://TRACKER.OPENTRACKR.ORG:1337/announce
  • UDP://TRACKER.COPPERSURFER.TK:6969/announce
  • UDP://TRACKER.LEECHERS-PARADISE.ORG:6969/announce
  • udp://tracker.coppersurfer.tk:6969/announce
  • udp://tracker.ilibr.org:6969/announce
  • udp://tracker.ilibr.org:80/announce
  • udp://tracker.opentrackr.org:1337/announce
  • udp://zer0day.to:1337/announce
  • udp://tracker.zer0day.to:1337/announce
  • udp://p4p.arenabg.com:1337/announce
  • udp://p4p.arenabg.ch:1337/announce
  • udp://tracker.leechers-paradise.org:6969/announce
  • udp://explodie.org:6969/announce
  • udp://9.rarbg.to:2710/announce
  • udp://eddie4.nl:6969/announce
  • udp://9.rarbg.to:2770/announce
  • https://jiotorrents.net/announce.php?pk=55d8c994ec11650b3b27ff3073f32fc836856f73
  • udp://tracker.coppersurfer.tk:6969/announce
  • udp://tracker.ilibr.org:6969/announce
  • udp://tracker.ilibr.org:80/announce
  • udp://tracker.opentrackr.org:1337/announce
  • udp://zer0day.to:1337/announce
  • udp://tracker.zer0day.to:1337/announce
  • udp://p4p.arenabg.com:1337/announce
  • udp://p4p.arenabg.ch:1337/announce
  • udp://tracker.leechers-paradise.org:6969/announce
  • udp://explodie.org:6969/announce
  • udp://9.rarbg.to:2710/announce
  • udp://eddie4.nl:6969/announce
  • udp://9.rarbg.to:2770/announce
/08/e7/ff/08e7ffd6a1ad8052c7c702273b643766.js'>